imdb
rating

7.1
Hotel Transylvania

Hotel Transylvania (2012)

Animation, Comedy, Fantasy, Family

Full description

Hotel Transylvania 2012 DVDRip XviD VoMiT

Size 745.059 MB   0 seeders     Added 2012-10-14 19:20:01

Stream torrent
Starting‥ You need BitLord! Get it from 1BitLord.com
To download or stream you need BitLord. Visit them at BitLord.com
\r\n\r\nFrame rate                       : 23.067 fps\r\nOriginal frame rate              : 23.976 fps\r\nColor space                      : YUV\r\nChroma subsampling               : 4:2:0\r\nBit depth                        : 8 bits\r\nScan type                        : Progressive\r\nCompression mode                 : Lossy\r\nBits/(Pixel*Frame)               : 0.254\r\nStream size                      : 599 MiB (91%)\r\nWriting library                  : XviD 64\r\n\r\nAudio\r\nID                               : 1\r\nFormat                           : MPEG Audio\r\nFormat version                   : Version 1\r\nFormat profile                   : Layer 3\r\nMode                             : Joint stereo\r\nMode extension                   : MS Stereo\r\nCodec ID                         : 55\r\nCodec ID/Hint                    : MP3\r\nDuration                         : 1h 42mn\r\nBit rate mode                    : Constant\r\nBit rate                         : 128 Kbps\r\nChannel(s)                       : 2 channels\r\nSampling rate                    : 44.1 KHz\r\nCompression mode                 : Lossy\r\nStream size                      : 93.7 MiB (9%)\r\nAlignment                        : Split accross interleaves\r\nInterleave, duration             : 43 ms (1.00 video frame)\r\nInterleave, preload duration     : 500 ms\r\n\r\n\r\n\r\n\r\n\r\n\r\n\r\n\r\n
Hotel Transylvania 2012 DVDRip XviD VoMiT/Hotel Transylvania 2012 DVDRip XviD.wmv 744.989 MB
Hotel Transylvania 2012 DVDRip XviD VoMiT/Readme.txt 3.303 KB
Hotel Transylvania 2012 DVDRip XviD VoMiT/Subtitle.srt 66.326 KB
Gathering some info...

Register and log in Isohunt and see no captcha anymore!

4000 symbols left
Hash 0d3ec8695927b2d2ce649365a5f71711044f9fe4

Related torrents for "Hotel Transylvania 2012 DVDRip XviD VoMiT"

Torrent search:

dvdrip 2012