imdb
rating

5.1
Grave Encounters 2

Grave Encounters 2 (2012)

Horror

Full description
quality   bd web-rip dvdrip dvd screener hd

Grave Encounters 2 2012 DVDRip XviD VoMiT

Size 745.146 MB   0 seeders     Added 2012-10-14 19:19:04

Stream torrent
Starting‥ You need BitLord! Get it from BitLord.com
10
To download or stream you need BitLord. Visit them at BitLord.com
\r\n\r\nFrame rate                       : 23.067 fps\r\nOriginal frame rate              : 23.976 fps\r\nColor space                      : YUV\r\nChroma subsampling               : 4:2:0\r\nBit depth                        : 8 bits\r\nScan type                        : Progressive\r\nCompression mode                 : Lossy\r\nBits/(Pixel*Frame)               : 0.254\r\nStream size                      : 599 MiB (91%)\r\nWriting library                  : XviD 64\r\n\r\nAudio\r\nID                               : 1\r\nFormat                           : MPEG Audio\r\nFormat version                   : Version 1\r\nFormat profile                   : Layer 3\r\nMode                             : Joint stereo\r\nMode extension                   : MS Stereo\r\nCodec ID                         : 55\r\nCodec ID/Hint                    : MP3\r\nDuration                         : 1h 42mn\r\nBit rate mode                    : Constant\r\nBit rate                         : 128 Kbps\r\nChannel(s)                       : 2 channels\r\nSampling rate                    : 44.1 KHz\r\nCompression mode                 : Lossy\r\nStream size                      : 93.7 MiB (9%)\r\nAlignment                        : Split accross interleaves\r\nInterleave, duration             : 43 ms (1.00 video frame)\r\nInterleave, preload duration     : 500 ms\r\n\r\n\r\n\r\n\r\n\r\n\r\n\r\n\r\n
Grave Encounters 2 2012 DVDRip XviD VoMiT/Grave Encounters 2 2012 DVDRip XviD.wmv 744.989 MB
Grave Encounters 2 2012 DVDRip XviD VoMiT/info.nfo 5.075 KB
Grave Encounters 2 2012 DVDRip XviD VoMiT/Readme.txt 683 B
Gathering some info...

Register and log in Isohunt and see no captcha anymore!

4000 symbols left
Hash 34fd297f0307d26c7d50b4ebd9f488348e6f5af7

Related torrents for "Grave Encounters 2 2012 DVDRip XviD VoMiT"

Torrent search:

dvdrip 2012