imdb
rating

7.0
Frankenweenie

Frankenweenie (2012)

Animation, Comedy, Family

Full description
quality   screener dvdrip dvd bd

Frankenweenie 2012 DVDRip XviD VoMiT

Size 744.995 MB   0 seeders     Added 2012-10-14 19:18:01

Stream torrent
Starting‥ You need BitLord! Get it from BitLord.com
To download or stream you need BitLord. Visit them at BitLord.com
\r\n\r\nFrame rate                       : 23.067 fps\r\nOriginal frame rate              : 23.976 fps\r\nColor space                      : YUV\r\nChroma subsampling               : 4:2:0\r\nBit depth                        : 8 bits\r\nScan type                        : Progressive\r\nCompression mode                 : Lossy\r\nBits/(Pixel*Frame)               : 0.254\r\nStream size                      : 599 MiB (91%)\r\nWriting library                  : XviD 64\r\n\r\nAudio\r\nID                               : 1\r\nFormat                           : MPEG Audio\r\nFormat version                   : Version 1\r\nFormat profile                   : Layer 3\r\nMode                             : Joint stereo\r\nMode extension                   : MS Stereo\r\nCodec ID                         : 55\r\nCodec ID/Hint                    : MP3\r\nDuration                         : 1h 42mn\r\nBit rate mode                    : Constant\r\nBit rate                         : 128 Kbps\r\nChannel(s)                       : 2 channels\r\nSampling rate                    : 44.1 KHz\r\nCompression mode                 : Lossy\r\nStream size                      : 93.7 MiB (9%)\r\nAlignment                        : Split accross interleaves\r\nInterleave, duration             : 43 ms (1.00 video frame)\r\nInterleave, preload duration     : 500 ms\r\n\r\n\r\n\r\n\r\n\r\n\r\n\r\n\r\n
Frankenweenie 2012 DVDRip XviD VoMiT/Frankenweenie 2012 DVDRip XviD.wmv 744.989 MB
Frankenweenie 2012 DVDRip XviD VoMiT/info.nfo 5.075 KB
Frankenweenie 2012 DVDRip XviD VoMiT/Readme.txt 683 B
Gathering some info...

Register and log in Isohunt and see no captcha anymore!

4000 symbols left
Hash aa110873736aa021a6e7e35cf52d9a566932e9d1

Related torrents for "Frankenweenie 2012 DVDRip XviD VoMiT"

Torrent search:

dvdrip 2012