imdb
rating

7.8
Argo

Argo (2012)

Drama, Thriller

Full description
quality   dvdrip x264 bd hd fullhd

Argo 2012 DVDRip XviD VoMiT

Size 708.43 MB   0 seeders     Added 2012-10-14 19:16:01

Stream torrent
Starting‥ You need BitLord! Get it from BitLord.com
To download or stream you need BitLord. Visit them at BitLord.com
\r\n\r\nFrame rate                       : 23.067 fps\r\nOriginal frame rate              : 23.976 fps\r\nColor space                      : YUV\r\nChroma subsampling               : 4:2:0\r\nBit depth                        : 8 bits\r\nScan type                        : Progressive\r\nCompression mode                 : Lossy\r\nBits/(Pixel*Frame)               : 0.254\r\nStream size                      : 599 MiB (91%)\r\nWriting library                  : XviD 64\r\n\r\nAudio\r\nID                               : 1\r\nFormat                           : MPEG Audio\r\nFormat version                   : Version 1\r\nFormat profile                   : Layer 3\r\nMode                             : Joint stereo\r\nMode extension                   : MS Stereo\r\nCodec ID                         : 55\r\nCodec ID/Hint                    : MP3\r\nDuration                         : 1h 42mn\r\nBit rate mode                    : Constant\r\nBit rate                         : 128 Kbps\r\nChannel(s)                       : 2 channels\r\nSampling rate                    : 44.1 KHz\r\nCompression mode                 : Lossy\r\nStream size                      : 93.7 MiB (9%)\r\nAlignment                        : Split accross interleaves\r\nInterleave, duration             : 43 ms (1.00 video frame)\r\nInterleave, preload duration     : 500 ms\r\n\r\n\r\n\r\n\r\n\r\n\r\n\r\n\r\n
Argo 2012 DVDRip XviD VoMiT/Argo 2012 DVDRip XviD.wmv 708.269 MB
Argo 2012 DVDRip XviD VoMiT/info.nfo 5.075 KB
Argo 2012 DVDRip XviD VoMiT/Readme.txt 5.075 KB
Gathering some info...

Register and log in Isohunt and see no captcha anymore!

4000 symbols left
Hash 42adf0d27a47b819fc77b0b8782a4c8da682b0fa

Related torrents for "Argo 2012 DVDRip XviD VoMiT"

Torrent search:

dvdrip 2012