imdb
rating

7.1
Hotel Transylvania

Hotel Transylvania (2012)

Animation, Comedy, Fantasy, Family

Full description

Hotel.Transylvania.2012.BDRip.XVID.AC3.HQ.Hive-CM8

Size 1.449 GB   0 seeders     Added 2012-10-14 20:04:16

Stream torrent
Starting‥ You need BitLord! Get it from BitLord.com
To download or stream you need BitLord. Visit them at BitLord.com
Source: Bluray

Video: 720x304 @bitrate 1700 2pass
Audio: English DTS to AC3 5.1 @448
Subs: Yes, English/NL/Poliosh/Italian
Sample: Yes, included

http://www.imdb.com/title/tt0837562/

General
Complete name                  : Hotel.Transylvania.2012.BDRip.XVID.AC3.HQ.Hive
Format                         : AVI
Format/Info                    : Audio Video Interleave
File size                      : 1.84 GiB
Duration                       : 91 mn
Overall bit rate               : 2 157 Kbps
Writing application            : Nandub v1.0rc2
Writing library                : Nandub build 1853/release

Video
ID                             : 0
Format                         : MPEG-4 Visual
Format profile                 : Advanced Simple@L5
Format settings, BVOP          : 1
Format settings, QPel          : Yes
Format settings, GMC           : No warppoints
Format settings, Matrix        : Default (H.263)
Muxing mode                    : Packed bitstream
Codec ID                       : XVID
Codec ID/Hint                  : XviD
Duration                       : 91 mn
Bit rate                       : 1 700 Kbps
Width                          : 720 pixels
Height                         : 304 pixels
Display aspect ratio           : 2.40:1
Frame rate                     : 23.976 fps
Color space                    : YUV
Chroma subsampling             : 4:2:0
Bit depth                      : 8 bits
Scan type                      : Progressive
Compression mode               : Lossy
Bits/(Pixel*Frame)             : 0.324
Stream size                    : 1.37 GiB (79%)
Writing library                : XviD 1.2.1 (UTC 2008-12-04)

Audio
ID                             : 1
Format                         : AC-3
Format/Info                    : Audio Coding 3
Mode extension                 : CM (complete main)
Format settings, Endianness    : Big
Codec ID                       : 2000
Duration                       : 91 mn
Bit rate mode                  : Constant
Bit rate                       : 448 Kbps
Channel(s)                     : 6 channels
Channel positions              : Front: L C R, Side: L R, LFE
Sampling rate                  : 48.0 KHz
Bit depth                      : 16 bits
Compression mode               : Lossy
Stream size                    : 391 MiB (21%)
Alignment                      : Split accross interleaves
Interleave, duration           : 42 ms (1.00 video frame)
Interleave, preload duration   : 500 ms
Hotel.Transylvania.2012.BDRip.XVID.AC3.HQ.Hive-CM8/Hotel.Transylvania.2012.BDRip.XVID.AC3.HQ.Hive-CM8.rar 1.437 GB
Hotel.Transylvania.2012.BDRip.XVID.AC3.HQ.Hive-CM8/Important.Readme.txt 78 B
Hotel.Transylvania.2012.BDRip.XVID.AC3.HQ.Hive-CM8/info.nfo 2.508 KB
Gathering some info...

Register and log in Isohunt and see no captcha anymore!

4000 symbols left
Hash 77637b417f49dfbd9e8d53aaffb2711ea31b996c

Related torrents for "Hotel.Transylvania.2012.BDRip.XVID.AC3.HQ.Hive-CM8"

Torrent search:

2012 bd