Valhalla Rising - Regno di sangue (2009) [XviD - Italian Ac3] MIRCrew [TNT Village]

Size 1.468 GB   6 seeders     Added 2012-10-14 23:20:29

Stream torrent
Starting‥ You need BitLord! Get it from BitLord.com
To download or stream you need BitLord. Visit them at BitLord.com
Valhalla Rising - Regno di sangue (2009) [XviD - Italian Ac3] MIRCrew [TNT Village]


[color=red][IMG]image[/IMG]

*********************************************

[URL=http://www.imdb.com/title/tt0862467/][IMG]image[/IMG][/URL] 

Valhalla Rising - Regno di sangue (2009)

[IMG]image[/IMG]

[IMG]image[/IMG]


Valhalla Rising - Regno di sangue (2009)

Titolo originale 	Valhalla Rising
Lingua originale 	inglese
Paese 	Danimarca, Regno Unito
Anno 	2009
Durata 	93 min

Premi

 Fantasporto 2010: menzione speciale della giuria

Rapporto 	2,35:1
Genere 	epico, drammatico
Regia 	Nicolas Winding Refn
Soggetto 	Nicolas Winding Refn
Sceneggiatura 	Nicolas Winding Refn, Roy Jacobsen
Produttore 	Johnny Andersen, Bo Ehrhardt, Henrik Danstrup, Karen Smyth (co-produttore)
Produttore esecutivo 	Lene Børglum, Carole Sheridan, Linda James, Joni Sighvatsson, Mads Peter Ole Olsen, Christine Alderson, Yves Chevalier, Thorir Sigurjónsson
Casa di produzione 	BBC Films, Nimbus Film, One Eye Production, Blind Eye Productions, La Belle Allée Productions, Scanbox Films
Fotografia 	Morten Søborg
Montaggio 	Mat Newman
Musiche 	Peterpeter, Peter Kyed
Scenografia 	Laurel Wear
Costumi 	Gill Horn
Trucco 	Niamh Morrison


[IMG]image[/IMG]


[IMG]image[/IMG]

 Mads Mikkelsen: One-Eye
 I pagani:
 Alexander Morton
 Stewart Porter
 Maarten Stevenson
 Matthew Zajac
 I vichinghi cristiani:
 Gordon Brown
 Gary McCormack
 Andrew Flanagan
 James Ramsey
 Gary Lewis
 Jamie Sives
 Ewan Stewart

[IMG]image[/IMG]

[IMG]image[/IMG]

Per anni, One-Eye, un guerriero muto dalla forza sovrumana, è stato tenuto prigioniero dal capitano Barde. Aiutato da un ragazzo, Are, One-Eye uccide il suo sequestratore e i due scappano insieme dando così inizio a un viaggio nel cuore delle tenebre. In questo viaggio, One-Eye e Are salgono a bordo di una nave vichinga che però viene subito inghiottita da una nebbia senza fine che si dissiperà nel momento in cui i due protagonisti avvistarono una terra sconosciuta. Mentre il nuovo mondo rivela i suoi segreti e i vichinghi vanno.............

[IMG]image[/IMG]

[IMG]image[/IMG]




[IMG]image[/IMG]

General
Complete name : Valhalla Rising (2009)\Valhalla Rising (2009) CD2.avi
Format : AVI
Format/Info : Audio Video Interleave
File size : 700 MiB
Duration : 41mn 13s
Overall bit rate : 2 374 Kbps
Writing application : VirtualDubMod 1.5.10.2 (build 2540/release)
Writing library : VirtualDubMod build 2540/release

Video
ID : 0
Format : MPEG-4 Visual
Format profile : Advanced Simple@L5
Format settings, BVOP : 1
Format settings, QPel : No
Format settings, GMC : No warppoints
Format settings, Matrix : Default (MPEG)
Codec ID : XVID
Codec ID/Hint : XviD
Duration : 41mn 13s
Bit rate : 1 918 Kbps
Width : 640 pixels
Height : 272 pixels
Display aspect ratio : 2.35:1
Frame rate : 25.000 fps
Color space : YUV
Chroma subsampling : 4:2:0
Bit depth : 8 bits
Scan type : Progressive
Compression mode : Lossy
Bits/(Pixel*Frame) : 0.441
Stream size : 566 MiB (81%)
Writing library : XviD 1.2.1 (UTC 2008-12-04)

Audio
ID : 1
Format : AC-3
Format/Info : Audio Coding 3
Mode extension : CM (complete main)
Codec ID : 2000
Duration : 41mn 1s
Bit rate mode : Constant
Bit rate : 448 Kbps
Channel(s) : 6 channels
Channel positions : Front: L C R, Side: L R, LFE
Sampling rate : 48.0 KHz
Bit depth : 16 bits
Compression mode : Lossy
Stream size : 131 MiB (19%)
Alignment : Split accross interleaves
Interleave, duration : 40 ms (1.01 video frame)
Interleave, preload duration : 500 ms


[/color]
Valhalla Rising (2009) CD1.avi 733.987 MB
Valhalla Rising (2009) CD2.avi 734.018 MB
Gathering some info...

Register and log in Isohunt and see no captcha anymore!

4000 symbols left
Hash B12552AEBC394E6EB655D07132487D668911B8B9

Related torrents for "Valhalla Rising - Regno di sangue (2009) [XviD - Italian Ac3] MIRCrew [TNT Village]"

Torrent search:

2009 italian