Yeh jo hai Zindagi season 2

Size 5.692 GB   0 seeders     Added 2012-10-15 02:56:20

Stream torrent
Starting‥ You need BitLord! Get it from BitLord.com
To download or stream you need BitLord. Visit them at BitLord.com
Yeh Jo hai Zindagi Season 2 episode 25 to 48



Format                                   : CDXA/MPEG-PS
File size                                : 226 MiB
Duration                                 : 22mn 21s
Overall bit rate                         : 1 413 Kbps

Video
ID                                       : 224 (0xE0)
Format                                   : MPEG Video
Format version                           : Version 1
Format settings, BVOP                    : Yes
Format settings, Matrix                  : Custom
Duration                                 : 22mn 21s
Bit rate                                 : 1 160 Kbps
Maximum bit rate                         : 1 120 Kbps
Width                                    : 352 pixels
Height                                   : 288 pixels
Display aspect ratio                     : 4:3
Frame rate                               : 25.000 fps
Standard                                 : PAL
Color space                              : YUV
Bit depth                                : 8 bits
Scan type                                : Progressive
Compression mode                         : Lossy
Bits/(Pixel*Frame)                       : 0.458
Stream size                              : 186 MiB (82%)

Audio
ID                                       : 192 (0xC0)
Format                                   : MPEG Audio
Format version                           : Version 1
Format profile                           : Layer 2
Duration                                 : 22mn 21s
Bit rate mode                            : Constant
Bit rate                                 : 224 Kbps
Channel(s)                               : 2 channels
Sampling rate                            : 44.1 KHz
Compression mode                         : Lossy
Stream size                              : 35.8 MiB (16%)


Screens: 
image 
image 
image 
image 
image 
image 
image 
image
seed amd enjoy..
please maintain ratio to support this torrent			
Episode 25 - Jumru.DAT 236.837 MB
Episode 26 - Rashmi Gets a Hair Cut.DAT 234.883 MB
Episode 27 - Chachi Gets Lost.DAT 244.029 MB
Gathering some info...

Register and log in Isohunt and see no captcha anymore!

4000 symbols left
Hash 2FB9AA0B9146924CF6FEBD39681A2138C32BFF3D

Related torrents for "Yeh jo hai Zindagi season 2"

Torrent search:

season 02