imdb
rating

6.8
New York

New York (2009)

Action, Crime, Drama, Foreign, Thriller

Full description

PSY - Gangnam Style (New York) (h264/mp4)

Size 102.875 MB   3 seeders     Added 2012-10-15 10:53:26

Stream torrent
Starting‥ You need BitLord! Get it from 1BitLord.com
10
To download or stream you need BitLord. Visit them at BitLord.com
General

Format                         : MPEG-4
Format profile                 : Base Media
Codec ID                       : isom
File size                      : 98.1 MiB
Duration                       : 4mn 14s
Overall bit rate mode          : Variable
Overall bit rate               : 3 230 Kbps
Encoded date                   : UTC 2012-10-11 02:53:05
Tagged date                    : UTC 2012-10-11 02:53:05

Video
ID                             : 1
Format                         : AVC
Format/Info                    : Advanced Video Codec
Format profile                 : High@L3.0
Format settings, CABAC         : Yes
Format settings, ReFrames      : 2 frames
Codec ID                       : avc1
Codec ID/Info                  : Advanced Video Coding
Duration                       : 4mn 14s
Bit rate                       : 3 041 Kbps
Maximum bit rate               : 6 525 Kbps
Width                          : 720 pixels
Height                         : 480 pixels
Display aspect ratio           : 16:9
Original display aspect ratio  : 16:9
Frame rate mode                : Constant
Frame rate                     : 23.976 fps
Standard                       : NTSC
Color space                    : YUV
Chroma subsampling             : 4:2:0
Bit depth                      : 8 bits
Scan type                      : Progressive
Bits/(Pixel*Frame)             : 0.367
Stream size                    : 92.4 MiB (94%)

Audio
ID                             : 2
Format                         : AAC
Format/Info                    : Advanced Audio Codec
Format profile                 : LC
Codec ID                       : 40
Duration                       : 4mn 14s
Bit rate mode                  : Variable
Bit rate                       : 185 Kbps
Maximum bit rate               : 238 Kbps
Channel(s)                     : 2 channels
Channel positions              : Front: L R
Sampling rate                  : 44.1 KHz
Compression mode               : Lossy
Stream size                    : 5.60 MiB (6%)		
PSY-GangnamStyle(NewYork)-musicvideos-hq.net.mp4 102.875 MB
Gathering some info...

Register and log in Isohunt and see no captcha anymore!

4000 symbols left
Hash BD8C066910246EC26F874394EA4995BA2361BC8A

Related torrents for "PSY - Gangnam Style (New York) (h264/mp4)"

Torrent search:

h264