8 Simple Rules

8 Simple Rules (2002)

Comedy

Full description

8 Simple Rules 1x17 Drummer Boy DvDRiP XviD-FoV

Size 183.831 MB   0 seeders     Added 2012-10-15 10:55:37

Stream torrent
Starting‥ You need BitLord! Get it from 1BitLord.com
To download or stream you need BitLord. Visit them at BitLord.com
Format                                   : AVI
Format/Info                              : Audio Video Interleave
File size                                : 175 MiB
Duration                                 : 21mn 41s
Overall bit rate mode                    : Variable
Overall bit rate                         : 1 130 Kbps
Writing application                      : Nandub v1.0rc2
Writing library                          : Nandub build 1853/release

Video
ID                                       : 0
Format                                   : MPEG-4 Visual
Format profile                           : Advanced Simple@L5
Format settings, BVOP                    : 2
Format settings, QPel                    : No
Format settings, GMC                     : No warppoints
Format settings, Matrix                  : Default (H.263)
Muxing mode                              : Packed bitstream
Codec ID                                 : XVID
Codec ID/Hint                            : XviD
Duration                                 : 21mn 41s
Bit rate                                 : 983 Kbps
Width                                    : 624 pixels
Height                                   : 352 pixels
Display aspect ratio                     : 16:9
Frame rate                               : 23.976 fps
Color space                              : YUV
Chroma subsampling                       : 4:2:0
Bit depth                                : 8 bits
Scan type                                : Progressive
Compression mode                         : Lossy
Bits/(Pixel*Frame)                       : 0.187
Stream size                              : 152 MiB (87%)
Writing library                          : XviD 1.2.0SMP (UTC 2006-01-08)

Audio
ID                                       : 1
Format                                   : MPEG Audio
Format version                           : Version 1
Format profile                           : Layer 3
Mode                                     : Joint stereo
Mode extension                           : MS Stereo
Codec ID                                 : 55
Codec ID/Hint                            : MP3
Duration                                 : 21mn 41s
Bit rate mode                            : Variable
Bit rate                                 : 134 Kbps
Channel(s)                               : 2 channels
Sampling rate                            : 48.0 KHz
Compression mode                         : Lossy
Delay relative to video                  : 8ms
Stream size                              : 20.8 MiB (12%)
Alignment                                : Aligned on interleaves
Interleave, duration                     : 24 ms (0.58 video frame)
Interleave, preload duration             : 366 ms
Writing library                          : LAME3.96.1		
8_simple_rules.1x17.drummer_boy.dvdrip_xvid-fov.avi 183.831 MB
Gathering some info...

Register and log in Isohunt and see no captcha anymore!

4000 symbols left
Hash 73C5E00E1D0E7CBA2ED6DD23423D3A1F0704F8E6

Related torrents for "8 Simple Rules 1x17 Drummer Boy DvDRiP XviD-FoV"

Torrent search:

dvdrip season 01 episode 17