Flo Rida - I Cry (h264/mp4)

Size 63.012 MB   0 seeders     Added 2012-10-15 11:02:19

Stream torrent
Starting‥ You need BitLord! Get it from BitLord.com
To download or stream you need BitLord. Visit them at BitLord.com
General

Format                         : MPEG-4
Format profile                 : Base Media
Codec ID                       : isom
File size                      : 60.1 MiB
Duration                       : 3mn 52s
Overall bit rate mode          : Variable
Overall bit rate               : 2 168 Kbps
Encoded date                   : UTC 2012-10-11 02:47:28
Tagged date                    : UTC 2012-10-11 02:47:28

Video
ID                             : 1
Format                         : AVC
Format/Info                    : Advanced Video Codec
Format profile                 : High@L3.0
Format settings, CABAC         : Yes
Format settings, ReFrames      : 2 frames
Codec ID                       : avc1
Codec ID/Info                  : Advanced Video Coding
Duration                       : 3mn 52s
Bit rate                       : 1 972 Kbps
Maximum bit rate               : 10.2 Mbps
Width                          : 720 pixels
Height                         : 480 pixels
Display aspect ratio           : 16:9
Original display aspect ratio  : 16:9
Frame rate mode                : Constant
Frame rate                     : 23.976 fps
Standard                       : NTSC
Color space                    : YUV
Chroma subsampling             : 4:2:0
Bit depth                      : 8 bits
Scan type                      : Progressive
Bits/(Pixel*Frame)             : 0.238
Stream size                    : 54.7 MiB (91%)


Audio
ID                             : 2
Format                         : AAC
Format/Info                    : Advanced Audio Codec
Format profile                 : LC
Codec ID                       : 40
Duration                       : 3mn 52s
Bit rate mode                  : Variable
Bit rate                       : 192 Kbps
Maximum bit rate               : 225 Kbps
Channel(s)                     : 2 channels
Channel positions              : Front: L R
Sampling rate                  : 44.1 KHz
Compression mode               : Lossy
Stream size                    : 5.32 MiB (9%)		
FloRida-ICry-musicvideos-hq.net.mp4 63.012 MB
Gathering some info...

Register and log in Isohunt and see no captcha anymore!

4000 symbols left
Hash 6aae483758c9f1ae22df53c1a7e5b3cafabe678c

Related torrents for "Flo Rida - I Cry (h264/mp4)"

Torrent search:

h264