imdb
rating

7.0
Agneepath

Agneepath (2012)

Action, Crime, Drama

Full description

Agneepath 2012 720p BluRay nHD x264 (NhaNc3) - Hindi

Size 3.667 GB   0 seeders     Added 2012-10-15 17:55:53

Stream torrent
Starting‥ You need BitLord! Get it from 1BitLord.com
To download or stream you need BitLord. Visit them at BitLord.com
[CENTER][IMG]image[/IMG]
 
image
 
image
 
image

Info - 
General
Format                           : Matroska
File size                        : 3.42 GiB
Duration                         : 2h 54mn
Overall bit rate                 : 2 809 Kbps
Encoded date                     : UTC 2012-07-27 04:23:19
Writing application              : mkvmerge v4.8.0 ('I Got The...') built on May 24 2011 03:12:58
Writing library                  : libebml v1.2.0 + libmatroska v1.1.0

Video
ID                               : 1
Format                           : AVC
Format/Info                      : Advanced Video Codec
Format profile                   : High@L4.1
Format settings, CABAC           : Yes
Format settings, ReFrames        : 5 frames
Codec ID                         : V_MPEG4/ISO/AVC
Duration                         : 2h 54mn
Bit rate                         : 2 425 Kbps
Width                            : 1 280 pixels
Height                           : 544 pixels
Display aspect ratio             : 2.35:1
Frame rate                       : 24.000 fps
Color space                      : YUV
Chroma subsampling               : 4:2:0
Bit depth                        : 8 bits
Scan type                        : Progressive
Bits/(Pixel*Frame)               : 0.145
Stream size                      : 2.88 GiB (84%)
Writing library                  : x264 core 125 r2200 999b753

Language                         : English
Color primaries                  : BT.709-5, BT.1361, IEC 61966-2-4, SMPTE RP177
Transfer characteristics         : BT.709-5, BT.1361
Matrix coefficients              : BT.709-5, BT.1361, IEC 61966-2-4 709, SMPTE RP177

Audio
ID                               : 2
Format                           : AC-3
Format/Info                      : Audio Coding 3
Mode extension                   : CM (complete main)
Codec ID                         : A_AC3
Duration                         : 2h 54mn
Bit rate mode                    : Constant
Bit rate                         : 384 Kbps
Channel(s)                       : 6 channels
Channel positions                : Front: L C R, Side: L R, LFE
Sampling rate                    : 48.0 KHz
Bit depth                        : 16 bits
Compression mode                 : Lossy
Stream size                      : 478 MiB (14%)
Language                         : English

Ripper : NhaNc3

Seeding 24x7... Extreme Seeding...


Enjoy!
		
Agneepath.2012.720p.BluRay.nHD.x264-NhaNc3.mkv 3.667 GB
Gathering some info...

Register and log in Isohunt and see no captcha anymore!

4000 symbols left
Hash FA3BD6BE042A0E689EF1CFC449B0CB3A004BF106

Related torrents for "Agneepath 2012 720p BluRay nHD x264 (NhaNc3) - Hindi"

Torrent search:

x264 hd hindi 2012 bd