imdb
rating

6.3
Taken 2

Taken 2 (2012)

Action, Crime, Drama, Thriller

Full description
quality   screener x264 dvd dvdrip hd bd

Taken.2.2012.BDRip.XVID.AC3.HQ.Hive-TBy

Size 1.458 GB   0 seeders     Added 2012-10-16 03:18:38

Stream torrent
Starting‥ You need BitLord! Get it from BitLord.com
To download or stream you need BitLord. Visit them at BitLord.com
Source: Bluray

Video: 720x304 @bitrate 1700 2pass
Audio: English DTS to AC3 5.1 @448
Subs: Yes, English/NL/Poliosh/Italian
Sample: Yes, included

http://www.imdb.com/title/tt1397280/

General
Complete name                  : Taken.2.2012.BDRip.XVID.AC3.HQ.Hive
Format                         : AVI
Format/Info                    : Audio Video Interleave
File size                      : 1.84 GiB
Duration                       : 91 mn
Overall bit rate               : 2 157 Kbps
Writing application            : Nandub v1.0rc2
Writing library                : Nandub build 1853/release

Video
ID                             : 0
Format                         : MPEG-4 Visual
Format profile                 : Advanced Simple@L5
Format settings, BVOP          : 1
Format settings, QPel          : Yes
Format settings, GMC           : No warppoints
Format settings, Matrix        : Default (H.263)
Muxing mode                    : Packed bitstream
Codec ID                       : XVID
Codec ID/Hint                  : XviD
Duration                       : 91 mn
Bit rate                       : 1 700 Kbps
Width                          : 720 pixels
Height                         : 304 pixels
Display aspect ratio           : 2.40:1
Frame rate                     : 23.976 fps
Color space                    : YUV
Chroma subsampling             : 4:2:0
Bit depth                      : 8 bits
Scan type                      : Progressive
Compression mode               : Lossy
Bits/(Pixel*Frame)             : 0.324
Stream size                    : 1.37 GiB (79%)
Writing library                : XviD 1.2.1 (UTC 2008-12-04)

Audio
ID                             : 1
Format                         : AC-3
Format/Info                    : Audio Coding 3
Mode extension                 : CM (complete main)
Format settings, Endianness    : Big
Codec ID                       : 2000
Duration                       : 91 mn
Bit rate mode                  : Constant
Bit rate                       : 448 Kbps
Channel(s)                     : 6 channels
Channel positions              : Front: L C R, Side: L R, LFE
Sampling rate                  : 48.0 KHz
Bit depth                      : 16 bits
Compression mode               : Lossy
Stream size                    : 391 MiB (21%)
Alignment                      : Split accross interleaves
Interleave, duration           : 42 ms (1.00 video frame)
Interleave, preload duration   : 500 ms
Taken.2.2012.BDRip.XVID.AC3.HQ.Hive-TBy/Important.Readme.txt 78 B
Taken.2.2012.BDRip.XVID.AC3.HQ.Hive-TBy/info.nfo 2.497 KB
Taken.2.2012.BDRip.XVID.AC3.HQ.Hive-TBy/Sample/Sample.mp4 21.541 MB
Gathering some info...

Register and log in Isohunt and see no captcha anymore!

4000 symbols left
Hash c8113deeaf07e9e549b9235e69c24ab2a797b10a

Related torrents for "Taken.2.2012.BDRip.XVID.AC3.HQ.Hive-TBy"

Torrent search:

2012 bd