Absolute Fear 2012 DVDRip English

Size 730.727 MB   2 seeders     Added 2012-10-16 05:00:18

Stream torrent
Starting‥ You need BitLord! Get it from 1BitLord.com
To download or stream you need BitLord. Visit them at BitLord.com
[img]image[/img]

[b]Poster:[/b]

[img]image[/img]

[b]Release Info:[/b]

[code]General
Complete name : Absolute Fear 2012 DVDRip English
Format : Matroska
Format version : Version 2
File size : 697 MiB
Duration : 1h 30mn
Overall bit rate : 1 071 Kbps
Movie name : Absolute Fear 2012 


Video
ID : 1
Format : MPEG-4 
Codec ID/Hint : XviD
Duration : 1h 30mn
Bit rate : 922 Kbps
Width : 640 pixels
Height : 352 pixels
Display aspect ratio : 16:9
Frame rate mode : Constant
Frame rate : 23.976 fps
Color space : YUV
Chroma subsampling : 4:2:0
Bit depth : 8 bits
Scan type : Progressive
Compression mode : Lossy
Bits/(Pixel*Frame) : 0.171
Stream size : 600 MiB (86%)
Language : English
Default : Yes
Forced : No

Audio
ID : 2
Format : MPEG Audio
Format version : Version 1
Format profile : Layer 3
Mode : Joint stereo
Mode extension : MS Stereo
Muxing mode : Header stripping
Codec ID : A_MPEG/L3
Codec ID/Hint : MP3
Duration : 1h 30mn
Bit rate mode : Constant
Bit rate : 128 Kbps
Channel(s) : 2 channels
Sampling rate : 44.1 KHz
Compression mode : Lossy
Stream size : 83.3 MiB (12%)
Language : English
Default : Yes
Forced : No[/code]

[b]IMDB Info:[/b]

[code]Jessie Valiquette follows her scribe boyfriend of 3 years Dale Morrow on a search for his long lost Father last heard from on a deserted island in the Philippines... See full summary ┬╗

Director: John Milton Branton
Writers: John Milton Branton, Tom Shell (story), and 1 more credit ┬╗
Stars: Stephanie Lemelin, Matthew Alan and Patrick Bergin
 
http://www.imdb.com/title/tt1296885/

Genres: Thriller
[/code]

[b]Screen Shot:[/b]

[img]image[/img]
[img]image[/img]
[img]image[/img]
[img]image[/img]
[img]image[/img]
[img]image[/img]
Absolute Fear 2012 DVDRip English.mkv 730.727 MB
Torrent Downloaded From Digtorrent.org.txt 346 B
Torrent downloaded from souravfile torrents on BTScene.eu.txt 69 B
Gathering some info...

Register and log in Isohunt and see no captcha anymore!

4000 symbols left
Hash 20C5A45C5CB20FE735F38D8FA0BA71F53916C49A

Related torrents for "Absolute Fear 2012 DVDRip English"

Torrent search:

dvdrip english 2012