2016 Obamas America 2012 DVDRip English

Size 729.504 MB   1 seeders     Added 2012-10-17 06:22:25

Stream torrent
Starting‥ You need BitLord! Get it from BitLord.com
To download or stream you need BitLord. Visit them at BitLord.com
[img]image[/img]

[b]Poster:[/b]

[img]image[/img]

[b]Release Info:[/b]

[code]General
Format : Matroska
Format version : Version 2
File size : 696 MiB
Duration : 1h 27mn
Overall bit rate : 1 117 Kbps
Movie name : 2016.obamas.america

Video
ID : 1
Format : MPEG-4 Visual
Format profile : Simple@L3
Format settings, BVOP : Yes
Format settings, QPel : No
Format settings, GMC : No warppoints
Format settings, Matrix : Default (MPEG)
Codec ID : V_MS/VFW/FOURCC / XVID
Codec ID/Hint : XviD
Duration : 1h 27mn
Bit rate : 957 Kbps
Width : 640 pixels
Height : 352 pixels
Display aspect ratio : 16:9
Frame rate mode : Constant
Frame rate : 23.976 fps
Color space : YUV
Chroma subsampling : 4:2:0
Bit depth : 8 bits
Scan type : Progressive
Compression mode : Lossy
Bits/(Pixel*Frame) : 0.177
Stream size : 601 MiB (86%)
Language : English
Default : Yes
Forced : No

Audio
ID : 2
Format : MPEG Audio
Format version : Version 1
Format profile : Layer 3
Mode : Joint stereo
Mode extension : MS Stereo
Muxing mode : Header stripping
Codec ID : A_MPEG/L3
Codec ID/Hint : MP3
Duration : 1h 27mn
Bit rate mode : Constant
Bit rate : 128 Kbps
Channel(s) : 2 channels
Sampling rate : 44.1 KHz
Compression mode : Lossy
Stream size : 80.4 MiB (12%)
Language : English
Default : Yes
Forced : No
[/code]

[b]IMDB Info:[/b]

A documentary that examines the question, "If Barack Obama wins a second term, where will we be in 2016?"

Directors: Dinesh D'Souza, John Sullivan
Writers: Dinesh D'Souza, John Sullivan, Stars: Dinesh D'Souza, Dr. Alice Dewey and Willy Kauai 
 
http://www.imdb.com/title/tt2247692/

Genres: Documentary

[b]Screen Shot:[/b]

[img]image[/img]
[img]image[/img]
[img]image[/img]
[img]image[/img]
[img]image[/img]
[img]image[/img]
[img]image[/img]
[img]image[/img]
2016 Obamas America 2012 DVDRip English .mkv 729.503 MB
Torrent Downloaded From Digtorrent.org.txt 346 B
Torrent downloaded from souravfile torrents on BTScene.eu.txt 69 B
Gathering some info...

Register and log in Isohunt and see no captcha anymore!

4000 symbols left
Hash E5E0A6D16933A8332D8913424A586A2A235FABEF

Related torrents for "2016 Obamas America 2012 DVDRip English"

Torrent search:

dvdrip english 2016