imdb
rating

5.0
247°F

247°F (2011)

Horror, Thriller

Full description
quality   bd x264 hd fullhd dvdrip h264

247 F 2011 BRRip English

Size 517.573 MB   0 seeders     Added 2012-10-17 06:22:29

Stream torrent
Starting‥ You need BitLord! Get it from BitLord.com
To download or stream you need BitLord. Visit them at BitLord.com
Release Info:

General

Format                                   : Matroska
Format version                           : Version 2
File size                                : 494 MiB
Duration                                 : 1h 27mn
Overall bit rate                         : 787 Kbps
Movie name                               : 247 Degrees Fahrenheit 

Video
ID                                       : 1
Format                                   : MPEG-4 Visual
Format profile                           : Simple@L3
Format settings, BVOP                    : Yes
Format settings, QPel                    : No
Format settings, GMC                     : No warppoints
Format settings, Matrix                  : Default (H.263)
Codec ID                                 : V_MS/VFW/FOURCC / XVID
Codec ID/Hint                            : XviD
Duration                                 : 1h 27mn
Bit rate                                 : 643 Kbps
Width                                    : 720 pixels
Height                                   : 304 pixels
Display aspect ratio                     : 2.35:1
Frame rate mode                          : Constant
Frame rate                               : 23.976 fps
Color space                              : YUV
Chroma subsampling                       : 4:2:0
Bit depth                                : 8 bits
Scan type                                : Progressive
Compression mode                         : Lossy
Bits/(Pixel*Frame)                       : 0.123
Stream size                              : 403 MiB (82%)
Language                                 : English
Default                                  : Yes
Forced                                   : No

Audio
ID                                       : 2
Format                                   : MPEG Audio
Format version                           : Version 1
Format profile                           : Layer 3
Mode                                     : Joint stereo
Muxing mode                              : Header stripping
Codec ID                                 : A_MPEG/L3
Codec ID/Hint                            : MP3
Duration                                 : 1h 27mn
Bit rate mode                            : Constant
Bit rate                                 : 128 Kbps
Channel(s)                               : 2 channels
Sampling rate                            : 44.1 KHz
Compression mode                         : Lossy
Stream size                              : 80.3 MiB (16%)
Language                                 : English
Default                                  : Yes
Forced                                   : No


Imdb info:

Four friends travel to a lakeside cabin for a carefree weekend, the fun turns into a nightmare when 3 of them end up locked in a hot sauna. Every minute counts and every degree matters as they fight for their lives in the heat up to 247┬░F.

Directors: Levan Bakhia, Beqa Jguburia
Writers: Lloyd S. Wagner, Levan Bakhia (story),
Stars: Scout Taylor-Compton, Travis Van Winkle and Michael Copon 
 
http://www.imdb.com/title/tt1877543/

Genres: Horror | Thriller

Screen Shot:
 
image 
image 
image 
image 
image		
247°F 2011 BRRip English.MKV 517.573 MB
Torrent Downloaded From Digtorrent.org.txt 346 B
Torrent downloaded from souravfile torrents on BTScene.eu.txt 69 B
Gathering some info...

Register and log in Isohunt and see no captcha anymore!

4000 symbols left
Hash 70159F3FED19AD8351603B26B712872A034BB0C2

Related torrents for "247 F 2011 BRRip English"

Torrent search:

english bd 2011