Pyar Kiya Toh Darna Kya (1998) BRRip 720p 1.2 DVD5 X264 RAJKHOD

Size 1.089 GB   0 seeders     Added 2012-10-17 06:56:38

Stream torrent
Starting‥ You need BitLord! Get it from BitLord.com
To download or stream you need BitLord. Visit them at BitLord.com
VIDEO
 Format : AVC
 Format/Info : Advanced Video Codec
 Format profile : Main@L3.0
 Format settings, CABAC : Yes
 Format settings, GOP : M=1, N=24
 Codec ID : 7
 Duration : 2h 36mn
 Bit rate : 791 Kbps
 Width : 854 pixels
 Height : 362 pixels
 Display aspect ratio : 2.35:1
 Frame rate : 24.000 fps
 Bit depth : 8 bits
 Stream size : 886 MiB (85%)
 
AUDIO
 Format : AAC
 Format/Info : Advanced Audio Codec
 Format profile : LC
 Codec ID : 10
 Duration : 2h 36mn
 Bit rate : 129 Kbps
 Channel(s) : 2 channels
 Sampling rate : 44.1 KHz
 Compression mode : Lossy
 Stream size : 144 MiB (14%)		
Pyar Kiya Toh Darna Kya (1998) BRRip 720p 1.2 DVD5 X264 RAJKHODA.mkv 1.089 GB
Gathering some info...

Register and log in Isohunt and see no captcha anymore!

4000 symbols left
Hash A6ADC7D325E72D83905DE6E9F5642467746AD6B7

Related torrents for "Pyar Kiya Toh Darna Kya (1998) BRRip 720p 1.2 DVD5 X264 RAJKHOD"

Torrent search:

1998 dvdr x264 hd bd