imdb
rating

7.0
The Amazing Spider-Man

The Amazing Spider-Man (2012)

Action, Adventure, Fantasy

Full description
quality   hd dvdrip screener x264 fullhd bd

The Amazing Spider-Man (2012) DVDRip XviD-MAXSPEED Verified

Size 1.415 GB   103 seeders     Added 2012-10-19 05:40:23

Stream torrent
Starting‥ You need BitLord! Get it from BitLord.com
4.2
To download or stream you need BitLord. Visit them at BitLord.com
http://www.torentz.3xforum.ro/post/2881/1/The_Amazing_Spider-Man_2012_DVDRip_XviD-MAXSPEED/ [img]image[/img] . Screens: . [img]image[/img] [img]image[/img] [img]image[/img] [img]image[/img] . Alternative: . [code]image[/code] . ScreenCaps: . [img]image[/img] . [code]The Amazing Spider-Man (2012) DVDRip XviD-MAXSPEED Format : AVI Format/Info : Audio Video Interleave Format profile : OpenDML Format settings : rec File size : 1.31 GiB Duration : 2h 10mn Overall bit rate : 1 435 Kbps Writing application : VirtualDubMod 1.5.10.2 (build 2542/release) Writing library : VirtualDubMod build 2542/release Original source form : MAX TORRENTZ Copyright : SIGISMUNT . Video ID : 0 Format : MPEG-4 Visual Format profile : Advanced Simple@L5 Format settings, BVOP : 2 Format settings, QPel : No Format settings, GMC : No warppoints Format settings, Matrix : Default (MPEG) Codec ID : XVID Codec ID/Hint : XviD Duration : 2h 10mn Bit rate : 1 109 Kbps Width : 720 pixels Height : 304 pixels Display aspect ratio : 2.35:1 Frame rate : 25.000 fps Color space : YUV Chroma subsampling : 4:2:0 Bit depth : 8 bits Scan type : Progressive Compression mode : Lossy Bits/(Pixel*Frame) : 0.203 Stream size : 1.01 GiB (77%) Writing library : XviD 1.2.1 (UTC 2008-12-04) . Audio ID : 1 Format : AC-3 Format/Info : Audio Coding 3 Mode extension : CM (complete main) Format settings, Endianness : Big Codec ID : 2000 Duration : 2h 10mn Bit rate mode : Constant Bit rate : 320 Kbps Channel(s) : 6 channels Channel positions : Front: L C R, Side: L R, LFE Sampling rate : 48.0 KHz Bit depth : 16 bits Compression mode : Lossy Stream size : 299 MiB (22%) Alignment : Aligned on interleaves Interleave, duration : 64 ms (1.60 video frames) Interleave, preload duration : 192 ms . Source: DVD (perfect a/v/sync quality,sample included) This torrent is not seedbox supported,please seed it to the MAX . Note:If you have something to offer as early releases,seedboxes, links,accounts,etc please contact us on torentz 3xforum ro . How To Get Your Maxspeed (uTorrent) . Torrent Client - Preferences - Bandwidth - Number of connections - Set aprox. 500 for each Torrent Client - Preferences - BiTorrent - Protocol Encryption - Forced Bandwidth Allocation - High (Set download/upload limit - Unlimited) Stop Other Active Torrents - Start downloading and wait for connections. Enjoy and Seed for at least 1:1 ratio. Don't forget to say thanks/leave reviews. Before downloading you should check/google search sample "release name""sample". Greets to all actual/future p2p/scene QUALITY groups and affiliate websites. Don't trust IMDb robot or bad ratings,always watch some trailers first. Ignore stupid comments/fake/mislabeled/no-DVDrips/CAM/TS/RAR uploads. Please spread this release/torrent to your friends/forums/etc. If you need translation subs visit some subtitles sites. Report if you see online streaming or other spam links. Recommended movie player VLC PLAYER.[/code]
sample.avi 8.135 MB
screencaps.jpeg 468.368 KB
The Amazing Spider-Man (2012) DVDRip XviD-MAXSPEED www.torentz.3xforum.ro.avi 1.406 GB
Gathering some info...

Register and log in Isohunt and see no captcha anymore!

4000 symbols left
Hash 1D835FE271593C51CDE9C3247522473620B98F78

Related torrents for "The Amazing Spider-Man (2012) DVDRip XviD-MAXSPEED"

Torrent search:

dvdrip 2012