Attack of the Show 2012 10 18 x264 OzQuant

Size 304.717 MB   0 seeders     Added 2012-10-19 15:21:19

Stream torrent
Starting‥ You need BitLord! Get it from 1BitLord.com
To download or stream you need BitLord. Visit them at BitLord.com
[size=200]Episode Info[/size]
Michael Kosta and Candace Bailey team up again for another Attack of the Show with Patton Oswalt and Rob Riggle live in studio for their new film, Nature Calls while Jessica Chobot checks out some of the freakiest films at New York Comic Con, like Carrie and Evil Dead! We cover the scariest apps for Halloween and the art of brewing your own beer. Tune in tonight 7/6c.

[size=200]File Info[/size]
Format : MPEG-4
Format profile : Base Media / Version 2
Codec ID : mp42
File size : 291 MiB
Duration : 43mn 16s
Overall bit rate mode : Variable
Overall bit rate : 939 Kbps

[size=200]Video[/size]
ID : 1
Format : AVC
Format/Info : Advanced Video Codec
Format profile : Main@L3.0
Format settings, CABAC : Yes
Format settings, ReFrames : 4 frames
Codec ID : avc1
Codec ID/Info : Advanced Video Coding
Duration : 43mn 15s
Bit rate mode : Variable
Bit rate : 871 Kbps
Width : 528 pixels
Height : 416 pixels
Display aspect ratio : 16:9
Frame rate mode : Variable
Frame rate : 25.000 fps
Minimum frame rate : 12.500 fps
Maximum frame rate : 25.000 fps
Color space : YUV
Chroma subsampling : 4:2:0
Bit depth : 8 bits
Scan type : Progressive
Bits/(Pixel*Frame) : 0.159
Stream size : 270 MiB (93%)
Writing library : x264 core 112

[size=200]Audio[/size]
ID : 2
Format : AAC
Format/Info : Advanced Audio Codec
Format profile : LC
Codec ID : 40
Duration : 43mn 16s
Bit rate mode : Variable
Bit rate : 64.0 Kbps
Maximum bit rate : 80.9 Kbps
Channel(s) : 2 channels
Channel positions : Front: L R
Sampling rate : 32.0 KHz
Compression mode : Lossy
Stream size : 19.8 MiB (7%)
Attack.of.the.Show.2012.10.18.x264.OzQuant.mp4 304.717 MB
Gathering some info...

Register and log in Isohunt and see no captcha anymore!

4000 symbols left
Hash 0826DC44F78E50B08C8E62C8DFF1474FBF7885FF

Related torrents for "Attack of the Show 2012 10 18 x264 OzQuant"

Torrent search:

x264 2012