imdb
rating

7.1
Hotel Transylvania

Hotel Transylvania (2012)

Animation, Comedy, Fantasy, Family

Full description

Hotel Transylvania 2012 DVDRip XviD-PTpOWeR

Size 722.623 MB   0 seeders     Added 2012-10-19 20:08:21

Stream torrent
Starting‥ You need BitLord! Get it from BitLord.com
To download or stream you need BitLord. Visit them at BitLord.com
\r\n\r\nVideo\r\nID : 0\r\nFormat : MPEG-4 Visual\r\nFormat profile : Advanced Simple@L5\r\nFormat settings, BVOP : Yes\r\nFormat settings, QPel : No\r\nFormat settings, GMC : No warppoints\r\nFormat settings, Matrix : Default (H.263)\r\nCodec ID : XVID\r\nCodec ID/Hint : XviD\r\nDuration : 1h 24mn\r\nBit rate : 1 193 Kbps\r\nWidth : 704 pixels\r\nHeight : 396 pixels\r\nDisplay aspect ratio : 16:9\r\nFrame rate : 23.976 fps\r\nColor space : YUV\r\nChroma subsampling : 4:2:0\r\nBit depth : 8 bits\r\nScan type : Progressive\r\nCompression mode : Lossy\r\nBits/(Pixel*Frame) : 0.178\r\nStream size : 719 MiB (72%)\r\nWriting library : XviD 1.2.1 (UTC 2008-12-04)\r\n\r\nAudio\r\nID : 1\r\nFormat : AC-3\r\nFormat/Info : Audio Coding 3\r\nMode extension : CM (complete main)\r\nCodec ID : 2000\r\nDuration : 1h 24mn\r\nBit rate mode : Constant\r\nBit rate : 448 Kbps\r\nChannel(s) : 6 channels\r\nChannel positions : Front: L C R, Side: L R, LFE\r\nSampling rate : 48.0 KHz\r\nBit depth : 16 bits\r\nCompression mode : Lossy\r\nVideo delay : 42ms\r\nStream size : 270 MiB (27%)\r\nAlignment : Split accross interleaves\r\nInterleave, duration : 500 ms (11.99 video frames)\r\n\r\n\r\n\r\n\r\n\r\n
Hotel Transylvania.2012.DVDRip.XviD-PTpOWeR/Hotel Transylvania.2012.DVDRip.XviD.wmv 722.549 MB
Hotel Transylvania.2012.DVDRip.XviD-PTpOWeR/img links.txt 3.303 KB
Hotel Transylvania.2012.DVDRip.XviD-PTpOWeR/info.nfo 3.303 KB
Gathering some info...

Register and log in Isohunt and see no captcha anymore!

4000 symbols left
Hash daaa5efa0861b305e64926aa86b0a0ac3d9d78ec

Related torrents for "Hotel Transylvania 2012 DVDRip XviD-PTpOWeR"

Torrent search:

dvdrip 2012