imdb
rating

6.3
Taken 2

Taken 2 (2012)

Action, Crime, Drama, Thriller

Full description
quality   screener x264 dvd dvdrip hd bd

Taken 2 2012 TS XViD - ARiSE [NO RARS]

Size 1.489 GB   4 seeders     Added 2012-10-20 22:00:47

Stream torrent
Starting‥ You need BitLord! Get it from BitLord.com
To download or stream you need BitLord. Visit them at BitLord.com

[img]image[/img]

[url]http://www.imdb.com/title/tt1397280/[/url]



[b]Plot : In Istanbul, retired CIA operative Bryan Mills and his wife are taken hostage by the father of a kidnapper Mills killed while rescuing his daughter.
 


Director: 
Olivier Megaton

 Writers: 
Luc Besson (screenplay), Robert Mark Kamen (screenplay)
 
Stars:
 Liam Neeson, Famke Janssen and Maggie Grace 

Genres:
 Action | Crime | Drama | Thriller 


Country:
France 

Language:
English 


SOURCES:
AUDIO - MATiNE
VIDEO - MATiNE 
[/b]

STATS:

Video
ID : 0
Format : MPEG-4 Visual
Format profile : Advanced Simple@L5
Format settings, BVOP : 2
Format settings, QPel : No
Format settings, GMC : No warppoints
Format settings, Matrix : Default (MPEG)
Muxing mode : Packed bitstream
Codec ID : XVID
Codec ID/Hint : XviD
Duration : 1h 26mn
Bit rate : 2 143 Kbps
Width : 720 pixels
Height : 304 pixels
Display aspect ratio : 2.35:1
Frame rate : 25.000 fps
Color space : YUV
Chroma subsampling : 4:2:0
Bit depth : 8 bits
Scan type : Progressive
Compression mode : Lossy
Bits/(Pixel*Frame) : 0.392
Stream size : 1.29 GiB (94%)
Writing library : XviD 64

Audio
ID : 1
Format : MPEG Audio
Format version : Version 1
Format profile : Layer 3
Mode : Joint stereo
Mode extension : MS Stereo
Codec ID : 55
Codec ID/Hint : MP3
Duration : 1h 26mn
Bit rate mode : Constant
Bit rate : 128 Kbps
Channel(s) : 2 channels
Sampling rate : 44.1 KHz
Compression mode : Lossy
Stream size : 78.8 MiB (6%)
Alignment : Split accross interleaves
Interleave, duration : 40 ms (1.00 video frame)
Interleave, preload duration : 500 ms


WORKDONE:

Tweaked the colouring slight,but nothing major...changed the brightness/contrast,aswell as used a smoother
and sharpen.
Audio was nice but seemed too powerful,so tweaked the eq bands and DB-s and resaved to mp3 and remuxed.

SCREENS:


[img]image[/img] 
[img]image[/img] 
[img]image[/img] 
[img]image[/img] 
[img]image[/img] 


post.jpg 59.094 KB
Taken 2 2012 TS XViD - ARiSE.avi 1.473 GB
Taken 2 2012 TS XViD - ARiSE.NFO 3.616 KB
Gathering some info...

Register and log in Isohunt and see no captcha anymore!

4000 symbols left
Hash 506C885A0D2BBEFEC44995745DEF7A7FF3AEBB87

Related torrents for "Taken 2 2012 TS XViD - ARiSE [NO RARS]"

Torrent search:

telesync 2012