Rival

Rival (2002)

Drama

Full description

Pokemon Black & White Rival Destinies Best Wishes S02E003 Eng Sub---by~~~{ Indhu Sharma }

Size 80.777 MB   0 seeders     Added 2012-10-20 23:20:14

Stream torrent
Starting‥ You need BitLord! Get it from 1BitLord.com
To download or stream you need BitLord. Visit them at BitLord.com
Pokemon Black & White | Rival Destinies | Best Wishes S02E003 Eng Sub
 
image


Synopsis:- 

[b]While Shirona is preparing for the Junior Cup, Satoshi, Dent, Iris, and Hikari take a trip to an uninhabited island for some relaxation. However, they soon discover the island is home to several Iwark that begin to attack them.[/b]

 
http://anidb.net/perl-bin/animedb.pl?show=anime&aid=9216


Media !NFO:-

General

Complete name                            : Pokemon BW S02E003.mp4
Format                                   : MPEG-4
Format profile                           : Base Media / Version 2
Codec ID                                 : mp42
File size                                : 77.0 MiB
Duration                                 : 24mn 49s
Overall bit rate mode                    : Variable
Overall bit rate                         : 434 Kbps
Encoded date                             : UTC 2012-07-07 02:15:29
Tagged date                              : UTC 2012-07-07 02:19:09
Writing application                      : HandBrake 0.9.6 2012030100


Video

ID                                       : 1
Format                                   : AVC
Format/Info                              : Advanced Video Codec
Format profile                           : Main@L2.2
Format settings, CABAC                   : No
Format settings, ReFrames                : 6 frames
Codec ID                                 : avc1
Codec ID/Info                            : Advanced Video Coding
Duration                                 : 24mn 49s
Bit rate mode                            : Variable
Bit rate                                 : 335 Kbps
Width                                    : 640 pixels
Height                                   : 360 pixels
Display aspect ratio                     : 16:9
Frame rate mode                          : Constant
Frame rate                               : 15.000 fps
Color space                              : YUV
Chroma subsampling                       : 4:2:0
Bit depth                                : 8 bits
Scan type                                : Progressive
Bits/(Pixel*Frame)                       : 0.097
Stream size                              : 59.6 MiB (77%)
Writing library                          : x264 core 120


Audio:-


ID                                       : 2
Format                                   : AAC
Format/Info                              : Advanced Audio Codec
Format profile                           : LC
Codec ID                                 : 40
Duration                                 : 24mn 49s
Bit rate mode                            : Variable
Bit rate                                 : 96.0 Kbps
Maximum bit rate                         : 197 Kbps
Channel(s)                               : 2 channels
Channel positions                        : Front: L R
Sampling rate                            : 48.0 KHz
Compression mode                         : Lossy
Stream size                              : 17.0 MiB (22%)


Screens:-


[img]image[/img]

[img]image[/img]

[img]image[/img]

[img]image[/img]

[img]image[/img]


[img]image[/img]

[img]image[/img]

[img]image[/img]		
Pokemon BW S02E003.mp4 80.777 MB
Gathering some info...

Register and log in Isohunt and see no captcha anymore!

4000 symbols left
Hash F800D2AD807705371B8708A67849ACD8A2489BE4

Related torrents for "Pokemon Black & White Rival Destinies Best Wishes S02E003 Eng Sub---by~~~{ Indhu Sharma }"

Torrent search:

english