imdb
rating

7.7
Carlos

Carlos (2010)

Crime, Drama, History, Thriller

Full description
quality   dvdrip x264 hd bd fullhd screener

Roberto Carlos - En Vivo Desde Miami (Xvid)

Size 758.885 MB   0 seeders     Added 2012-10-21 18:53:35

Stream torrent
Starting‥ You need BitLord! Get it from 1BitLord.com
To download or stream you need BitLord. Visit them at BitLord.com
General

Format                         : AVI
Format/Info                    : Audio Video Interleave
File size                      : 724 MiB
Duration                       : 1h 22mn
Overall bit rate               : 1 222 Kbps

Video
ID                             : 0
Format                         : MPEG-4 Visual
Format profile                 : Advanced Simple@L5
Format settings, BVOP          : 2
Format settings, QPel          : No
Format settings, GMC           : No warppoints
Format settings, Matrix        : Default (H.263)
Muxing mode                    : Packed bitstream
Codec ID                       : XVID
Codec ID/Hint                  : XviD
Duration                       : 1h 22mn
Bit rate                       : 1 083 Kbps
Width                          : 640 pixels
Height                         : 480 pixels
Display aspect ratio           : 4:3
Frame rate                     : 29.970 fps
Color space                    : YUV
Chroma subsampling             : 4:2:0
Bit depth                      : 8 bits
Scan type                      : Progressive
Compression mode               : Lossy
Bits/(Pixel*Frame)             : 0.118
Stream size                    : 641 MiB (89%)
Writing library                : XviD 64

Audio
ID                             : 1
Format                         : MPEG Audio
Format version                 : Version 1
Format profile                 : Layer 3
Codec ID                       : 55
Codec ID/Hint                  : MP3
Duration                       : 1h 22mn
Bit rate mode                  : Constant
Bit rate                       : 128 Kbps
Channel(s)                     : 2 channels
Sampling rate                  : 44.1 KHz
Compression mode               : Lossy
Stream size                    : 75.8 MiB (10%)
Alignment                      : Split accross interleaves
Interleave, duration           : 33 ms (1.00 video frame)
Writing library                : LAMELAME_MAJOR_VERSI				
RobertoCarlos-EnVivoDesdeMiami-descargar-videos.org.avi 758.885 MB
Gathering some info...

Register and log in Isohunt and see no captcha anymore!

4000 symbols left
Hash 56157AA875860776A1DE804A8D338EAE580712F9

Related torrents for "Roberto Carlos - En Vivo Desde Miami (Xvid)"