imdb
rating

8.0
Eega

Eega (2012)

Romance, Science Fiction

Full description
quality   x264 dvdrip dvdr hd bd fullhd

Eega 2012 Non Hindi (Telugu) Upscaled DvDrip x264 Untouched AC3...Hon3y

Size 1.69 GB   0 seeders     Added 2012-10-21 23:00:22

Stream torrent
Starting‥ You need BitLord! Get it from 1BitLord.com
10
To download or stream you need BitLord. Visit them at BitLord.com
[center][img]image[/img]

[url]http://www.imdb.com/title/tt2258337/[/url]

[url]http://en.wikipedia.org/wiki/Eega[/url]

Source : DVD9
Format : Matroska
Format version : Version 2
File size : 1.55 GiB
Duration : 2h 13mn
Overall bit rate : 1 655 Kbps
[color=red][b]Sample : Yes[/b][/color]

Video
ID : 1
Format : AVC
Format/Info : Advanced Video Codec
Format profile : High@L3.0
Format settings, CABAC : Yes
Format settings, ReFrames : 5 frames
Codec ID : V_MPEG4/ISO/AVC
Duration : 2h 13mn
Bit rate : 1 200 Kbps
Width : 864 pixels
Height : 368 pixels
Display aspect ratio : 2.35:1
Frame rate : 24.000 fps
Color space : YUV
Chroma subsampling : 4:2:0
Bit depth : 8 bits
Scan type : Progressive
Bits/(Pixel*Frame) : 0.157
Stream size : 1.10 GiB (71%)

Audio
ID : 2
Format : AC-3
Bit rate mode : Constant
Bit rate : 448 Kbps
Channel(s) : 6 channels
Channel positions : Front: L C R, Side: L R, LFE
Sampling rate : 48.0 KHz
Bit depth : 16 bits
Compression mode : Lossy
Stream size : 429 MiB (27%)
Language : Telugu

Text
ID : 3
Format : VobSub
Codec ID : S_VOBSUB
Codec ID/Info : The same subtitle format used on DVDs
Language : English


[img]image[/img]
[img]image[/img]
[img]image[/img]
[img]image[/img]
[img]image[/img]
[img]image[/img]
[img]image[/img]
[img]image[/img]
[img]image[/img]


[color=red][b]For Best Result Use media player classic home cinema(included in torrent) or vlc player.
After that no need 720p Version.Try with sample.[/b][/color][/center]
Movie/Eega 2012 Non Hindi (Telugu) Upscaled DvDrip x264 Untouched AC3...Hon3y.mkv 1.66 GB
Movie/VTS_01_0.idx 36.536 KB
Movie/VTS_01_0.sub 2.492 MB
Gathering some info...

Register and log in Isohunt and see no captcha anymore!

4000 symbols left
Hash C20E2B9ACA3FCF5B5101EE7EA936EEA998A95625

Related torrents for "Eega 2012 Non Hindi (Telugu) Upscaled DvDrip x264 Untouched AC3...Hon3y"

Torrent search:

dvdrip x264 hindi 2012