imdb
rating

7.8
Argo

Argo (2012)

Drama, Thriller

Full description
quality   dvdrip x264 bd hd fullhd

Argo 2012 CAM XviD AC3 - TODE

Size 730.448 MB   0 seeders     Added 2012-10-22 01:21:38

Stream torrent
Starting‥ You need BitLord! Get it from 1BitLord.com
To download or stream you need BitLord. Visit them at BitLord.com
[img]image[/img]



[b]http://www.imdb.com/title/tt1024648/

A dramatization of the 1980 joint CIA-Canadian secret operation to extract six fugitive American diplomatic personnel out of revolutionary Iran.
 


Director: 
Ben Affleck

 Writers: 
Chris Terrio (screenplay), Joshuah Bearman (article)
 
Stars:
 Ben Affleck, Bryan Cranston and John Goodman

Genres:
 Biography | Drama | Thriller

[/b]


Format : AVI
Format/Info : Audio Video Interleave
File size : 697 MiB
Duration : 1h 51mn
Overall bit rate : 874 Kbps
Writing application : Lavf54.29.101

Video
ID : 0
Format : MPEG-4 Visual
Format profile : Simple@L3
Format settings, BVOP : No
Format settings, QPel : No
Format settings, GMC : No warppoints
Format settings, Matrix : Default (H.263)
Codec ID : XVID
Codec ID/Hint : XviD
Duration : 1h 51mn
Bit rate : 799 Kbps
Width : 640 pixels
Height : 304 pixels
Display aspect ratio : 2.093
Frame rate : 23.976 fps
Color space : YUV
Chroma subsampling : 4:2:0
Bit depth : 8 bits
Scan type : Progressive
Compression mode : Lossy
Bits/(Pixel*Frame) : 0.171
Stream size : 637 MiB (91%)
Writing library : XviD 64

Audio
ID : 1
Format : AC-3
Format/Info : Audio Coding 3
Mode extension : CM (complete main)
Format settings, Endianness : Big
Codec ID : 2000
Duration : 1h 51mn
Bit rate mode : Constant
Bit rate : 64.0 Kbps
Channel(s) : 2 channels
Channel positions : Front: L R
Sampling rate : 48.0 KHz
Bit depth : 16 bits
Compression mode : Lossy
Stream size : 51.0 MiB (7%)
Alignment : Aligned on interleaves
Interleave, duration : 32 ms (0.77 video frame)




[url=http://darkscreen.info/?v=vlcsnahrh.png][img]image[/img][/url] [url=http://darkscreen.info/?v=vlcsnaifi.png][img]image[/img][/url]

[url=http://darkscreen.info/?v=vlcsnaiyi.png][img]image[/img][/url] [url=http://darkscreen.info/?v=vlcsnaljl.png][img]image[/img][/url]

Argo 2012 CAM XviD AC3 - TODE.avi 730.446 MB
nfo.txt 2.485 KB
Gathering some info...

Register and log in Isohunt and see no captcha anymore!

4000 symbols left
Hash 31D439A1F19D5B42287173AFCF47043F30D7FBCC

Related torrents for "Argo 2012 CAM XviD AC3 - TODE"

Torrent search:

cam 2012