imdb
rating

7.3
They Live

They Live (1988)

Action, Horror, Science Fiction, Thriller

Full description
quality   dvdrip x264 hdtv hd bd h264 fullhd

Essi Vivono They Live 1988

Size 1.471 GB   20 seeders     Added 2012-10-22 20:00:44

Stream torrent
Starting‥ You need BitLord! Get it from BitLord.com
To download or stream you need BitLord. Visit them at BitLord.com
Essi Vivono - They Live (1988) [XviD - Italian English Ac3 - Sub Ita] MIRCrew [TNT Village]


[color=#990000][b][IMG]image[/IMG]


[IMG]image[/IMG]




[IMG]image[/IMG]

Titolo originale 	They Live
Paese 	Stati Uniti
Anno 	1988
Durata 	93 min

Essi vivono è un film diretto da John Carpenter nel 1988. È tratto dal racconto Eight O'Clock in the Morning di Ray Nelson (1963) e interpretato dal lottatore "Rowdy" Roddy Piper, da Keith 

David e da Meg Foster.

Rapporto 	2,35:1
Genere 	horror, fantascienza
Regia 	John Carpenter
Soggetto 	Ray Nelson
Sceneggiatura 	John Carpenter
Produttore 	Larry J. Franco
Fotografia 	Gary B. Kibbe
Montaggio 	Gib Jaffe, Frank E. Jimenez
Effetti speciali 	Roy Arbogast
Musiche 	John Carpenter, Alan Howarth
Scenografia 	William J. Durrell Jr, Daniel A. Lomino
Trucco 	Frank Carrisosa

[IMG]image[/IMG]

[IMG]image[/IMG] 
 
 * Roddy Piper: John Nada
 * Keith David: Frank
 * Meg Foster: Holly Thompson
 * George "Buck" Flower: Drifter
 * Peter Jason: Gilbert

Doppiatori italiani

 * Piero Tiberi: John Nada
 * Paolo Buglioni: Frank

[IMG]image[/IMG]

[IMG]image[/IMG]

[IMG]image[/IMG]

John Nada lascia Denver per trasferirsi a Los Angeles in cerca di un lavoro. Viene assunto come operaio in un cantiere edile e grazie ad un collega trova alloggio in un campo di baracche 

nella periferia della città. Ma dopo pochi giorni, la polizia sgombera il campo e Nada ritrova una scatola piena di strani occhiali da sole. Provandoli, Nada scopre una realtà diversa, in 

bianco e nero: i cartelloni pubblicitari contengono messaggi subliminali e in giro ci sono moltissime persone dall'aspetto simile a quello degli zombi. Capendo che si tratta di alieni che 

stanno schiavizzando gli umani, Nada cerca un modo per rivelare al mondo la loro presenza. Ma non sarà facile. Nada, aiutato da Frank, un operaio di colore conosciuto in un cantiere e dalla 

misteriosa Holly Thompson, combatte gli invasori...............

[IMG]image[/IMG]

[IMG]image[/IMG]



[IMG]image[/IMG]


General
Complete name : Essi Vivono - They Live (1988)Essi Vivono - They Live (1988).avi
Format : AVI
Format/Info : Audio Video Interleave
File size : 1.37 GiB
Duration : 1h 30mn
Overall bit rate : 2 163 Kbps
Writing application : VirtualDubMod 1.5.4.1 (build 2178/release)
Writing library : VirtualDubMod build 2178/release

Video
ID : 0
Format : MPEG-4 Visual
Format profile : Simple@L3
Format settings, BVOP : 1
Format settings, QPel : No
Format settings, GMC : No warppoints
Format settings, Matrix : Custom
Codec ID : XVID
Codec ID/Hint : XviD
Duration : 1h 30mn
Bit rate : 1 483 Kbps
Width : 720 pixels
Height : 336 pixels
Display aspect ratio : 2.2:1
Frame rate : 25.000 fps
Color space : YUV
Chroma subsampling : 4:2:0
Bit depth : 8 bits
Scan type : Progressive
Compression mode : Lossy
Bits/(Pixel*Frame) : 0.245
Stream size : 960 MiB (69%)
Writing library : XviD 1.0.3 (UTC 2004-12-20)

Audio #1
ID : 1
Format : AC-3
Format/Info : Audio Coding 3
Mode extension : CM (complete main)
Codec ID : 2000
Duration : 1h 30mn
Bit rate mode : Constant
Bit rate : 448 Kbps
Channel(s) : 6 channels
Channel positions : Front: L C R, Side: L R, LFE
Sampling rate : 48.0 KHz
Bit depth : 16 bits
Compression mode : Lossy
Stream size : 290 MiB (21%)
Alignment : Split accross interleaves
Interleave, duration : 96 ms (2.40 video frames)
Interleave, preload duration : 96 ms
Language : Italian

Audio #2
ID : 2
Format : AC-3
Format/Info : Audio Coding 3
Mode extension : CM (complete main)
Codec ID : 2000
Duration : 1h 30mn
Bit rate mode : Constant
Bit rate : 224 Kbps
Channel(s) : 2 channels
Channel positions : Front: L R
Sampling rate : 48.0 KHz
Bit depth : 16 bits
Compression mode : Lossy
Stream size : 145 MiB (10%)
Alignment : Split accross interleaves
Interleave, duration : 96 ms (2.40 video frames)
Interleave, preload duration : 96 ms
Language : English



[/b]
[/color] 	
Essi Vivono - They Live (1988).avi 1.468 GB
Essi Vivono - They Live (1988).idx 22.551 KB
Essi Vivono - They Live (1988).sub 2.169 MB
Gathering some info...

Register and log in Isohunt and see no captcha anymore!

4000 symbols left
Hash E7CFDBDF6289AFE066CB12CB661E78937F2D80C9

Related torrents for "Essi Vivono They Live 1988"

Torrent search:

1988