Argo 2012 TS XVID 26K

Size 1.638 GB   30 seeders     Added 2012-10-22 21:20:43

Stream torrent
Starting‚Ä• You need BitLord! Get it from BitLord.com
To download or stream you need BitLord. Visit them at BitLord.com
[img]image[/img]
[code]

Argo.2012.TS.XVID-26K

http://www.imdb.com/title/tt1024648/

Plot:
A dramatization of the 1980 joint CIA-Canadian secret operation to extract six fugitive American diplomatic 

personnel out of revolutionary Iran.

Sources - audio-jinx...Thanks :P
 VIDEO-showtime.....Thanks :P
Video
ID : 0
Format : MPEG-4 Visual
Format profile : Advanced Simple@L5
Format settings, BVOP : 2
Format settings, QPel : No
Format settings, GMC : No warppoints
Format settings, Matrix : Default (H.263)
Muxing mode : Packed bitstream
Codec ID : XVID
Codec ID/Hint : XviD
Duration : 1h 51mn
Bit rate : 1 795 Kbps
Width : 682 pixels
Height : 338 pixels
Display aspect ratio : 2.018
Frame rate : 23.976 fps
Color space : YUV
Chroma subsampling : 4:2:0
Bit depth : 8 bits
Scan type : Progressive
Compression mode : Lossy
Bits/(Pixel*Frame) : 0.325
Stream size : 1.40 GiB (93%)
Writing library : XviD 64

Audio
ID : 1
Format : MPEG Audio
Format version : Version 1
Format profile : Layer 3
Mode : Joint stereo
Mode extension : MS Stereo
Codec ID : 55
Codec ID/Hint : MP3
Duration : 1h 51mn
Bit rate mode : Constant
Bit rate : 128 Kbps
Channel(s) : 2 channels
Sampling rate : 44.1 KHz
Compression mode : Lossy
Stream size : 102 MiB (7%)
Alignment : Split accross interleaves
Interleave, duration : 16349 ms (391.98 video frames)

Notes -
work done.. very nice video..with a few filters came out very nice..synced + muxed over the line audio... enjoy

[/code]

Screens:
[IMG]image[/IMG]
[IMG]image[/IMG]
[IMG]image[/IMG]
[IMG]image[/IMG]
[IMG]image[/IMG]
[IMG]image[/IMG]
[img]image[/img]
[img]image[/img]
[img]image[/img]
[img]image[/img]

Greetz:
XtremeEncode|FYA|ILLUMANTI|CM8||meggafast|RX|VISION|HDSCENE|xTriLL|DTRG|CRYS|REMIXHD|BIDA|RX|REFILL|INSPiRAL|

AXED|HOPE|Anonymous|GooN|NOIR|Blackjesus|Gabroo Punjab Deh|UNiQUE|DQ1|RESiSTANCE|HS||LEGION|STN|BOBBYBLUE

To all the people who have helped me you know who you are

Anything to offer email us @: 26k@hushmail.me

http://www.youtube.com/watch?v=2vAMxKvZqwU&feature=related <<bullying has to be stopped now!>>
Argo.2012.TS.XVID-26K.avi 1.611 GB
Argo.2012.TS.XVID-26K.nfo 10.334 KB
Meggafast.com.txt 124 B
Gathering some info...

Register and log in Isohunt and see no captcha anymore!

4000 symbols left
Hash 43788F55E6467888D3D21D7F30641112092296B2