The GENESIS Songbook(dvdripmp4)

Size 1.669 GB   11 seeders     Added 2012-10-24 06:00:14

Stream torrent
Starting‥ You need BitLord! Get it from BitLord.com
To download or stream you need BitLord. Visit them at BitLord.com
[img]image[/img] 

When Peter Gabriel, Tony Banks and Mike Rutherford joined forces in the late sixties, their intentions were not to be recording artists but rather songwriters. That initial plan soon fell by the wayside when they secured a record deal and became Genesis, progressing from the underground scene with such albums as "Trespass" and "Nursery Cryme," to become household names with the addition of drummer/singer Phil Collins and such chart topping albums as "We Can't Dance" and "Invisible Touch." By talking to the individual members of the group, discover what they consider to be their favorite Genesis songs, and why certain songs have a special place in the Genesis story. Song include: I Can't Dance, Invisible Touch, Follow You Follow Me, The Musical Box, Supper's Ready, I Know What I Like (In Your Wardrobe), The Lamb Lies Down on Broadway, Afterglow, Misunderstanding, Turn It On Again, Mama, Land of Confusion. 100 minutes. 
Torrent contains Bonus Material as well an extra 40min.

INFO: 
Format : MPEG-4
Format profile : Base Media
Codec ID : isom
File size : 963 MiB
Duration : 59mn 47s
Overall bit rate mode : Variable
Overall bit rate : 2 253 Kbps
Writing application : Lavf52.104.0

Video
ID : 1
Format : MPEG-4 Visual
Format profile : Simple@L3
Format settings, BVOP : No
Format settings, QPel : No
Format settings, GMC : No warppoints
Format settings, Matrix : Default (H.263)
Codec ID : 20
Duration : 59mn 46s
Bit rate : 2 063 Kbps
Width : 720 pixels
Height : 480 pixels
Display aspect ratio : 16:9
Original display aspect ratio : 16:9
Frame rate mode : Constant
Frame rate : 29.970 fps
Standard : NTSC
Color space : YUV
Chroma subsampling : 4:2:0
Bit depth : 8 bits
Scan type : Progressive
Compression mode : Lossy
Bits/(Pixel*Frame) : 0.199
Stream size : 882 MiB (92%)
Writing library : XviD 1.2.1 (UTC 2008-12-04)

Audio
ID : 2
Format : AAC
Format/Info : Advanced Audio Codec
Format profile : LC
Codec ID : 40
Duration : 59mn 47s
Bit rate mode : Variable
Bit rate : 185 Kbps
Channel(s) : 6 channels
Channel positions : Front: L C R, Side: L R, LFE
Sampling rate : 48.0 KHz
Compression mode : Lossy
Stream size : 79.0 MiB (8%)

SIZE: 1.55GB 

IMDb- http://www.imdb.com/title/tt0339057/ 
Bonus Material.mp4 659.013 MB
The Genesis Songbook.mp4 1.01 GB
Gathering some info...

Register and log in Isohunt and see no captcha anymore!

4000 symbols left
Hash D6A29C1F84D37D9B01DE9ADE314D12AE6E03522E