imdb
rating

7.6
The Invisible War

The Invisible War (2012)

Crime, Documentary, Drama, History

Full description

The Invisible War 2012 DVDRip XviD-WiDE

Size 740.394 MB   6 seeders     Added 2012-10-24 07:52:27

Stream torrent
Starting‥ You need BitLord! Get it from BitLord.com
To download or stream you need BitLord. Visit them at BitLord.com
[img]image[/img]

An investigative documentary about the epidemic of rape of soldiers within the US military.

Helen Benedict	...	Herself
Anu Bhagwati	...	Herself
Susan Burke	...	Herself
Kori Cioca	...	Herself
Susan Davis	...	Herself
Elle Helmer	...	Herself
Amy Herdy	...	Herself
Mary Kay Hertog	...	Herself
Jessica Hinves	...	Herself

Format : AVI
Format/Info : Audio Video Interleave
File size : 699 MiB
Duration : 1h 37mn
Overall bit rate : 1 001 Kbps

Video
ID : 0
Format : MPEG-4 Visual
Format profile : Advanced Simple@L5
Format settings, BVOP : 1
Format settings, QPel : No
Format settings, GMC : No warppoints
Format settings, Matrix : Default (MPEG)
Codec ID : XVID
Codec ID/Hint : XviD
Duration : 1h 37mn
Bit rate : 815 Kbps
Width : 624 pixels
Height : 352 pixels
Display aspect ratio : 16:9
Frame rate : 29.970 fps
Color space : YUV
Chroma subsampling : 4:2:0
Bit depth : 8 bits
Scan type : Progressive
Compression mode : Lossy
Bits/(Pixel*Frame) : 0.124
Stream size : 569 MiB (81%)
Writing library : XviD 1.2.1 (UTC 2008-12-04)

Audio
ID : 1
Format : MPEG Audio
Format version : Version 1
Format profile : Layer 3
Mode : Joint stereo
Mode extension : MS Stereo
Codec ID : 55
Codec ID/Hint : MP3
Duration : 1h 37mn
Bit rate mode : Variable
Bit rate : 172 Kbps
Nominal bit rate : 192 Kbps
Channel(s) : 2 channels
Sampling rate : 48.0 KHz
Compression mode : Lossy
Stream size : 120 MiB (17%)
Alignment : Aligned on interleaves
Interleave, duration : 24 ms (0.72 video frame)
Interleave, preload duration : 49 ms

[img]image[/img]
Sample/the.invisible.war.2012.dvdrip.xvid-wide.sample.avi 7.612 MB
the.invisible.war.2012.dvdrip.xvid-wide.avi 732.779 MB
the.invisible.war.2012.dvdrip.xvid-wide.nfo 2.372 KB
Gathering some info...

Register and log in Isohunt and see no captcha anymore!

4000 symbols left
Hash EC906F910E4F235EB7DE36976F7CAE512DA6F6B6

Related torrents for "The Invisible War 2012 DVDRip XviD-WiDE"

Torrent search:

dvdrip 2012