Sports

Sports (2014)

Full description

[2012-10-23] Real Sports With Bryant Gumbel E187 HDTV X264 CoLLuSioN

Size 462.25 MB   0 seeders     Added 2012-10-24 13:35:50

Stream torrent
Starting‥ You need BitLord! Get it from BitLord.com
To download or stream you need BitLord. Visit them at BitLord.com
[2012-10-23] Real Sports With Bryant Gumbel E187 HDTV X264 CoLLuSioN

[img]image[/img]

Having won 23 sports emmys in addition to being the first sports program to recieve a duPont Broadcast Journalism Award, Real Sports is TV's most honored sports magazine.  Featuring in-depth profiles and features on today's hottest sports topics, this one-of-a-kind show goes beyond the box scores and statistics to take a provocative and entertaining look at the world of contemporary sports.  It's informative, investigative and controversial.  Real Sports With Bryant Gumbel...nothing is out of bounds.

This Episode: Michael Strahan, Caroline Found, Athletes and Gay Pride, and Steve Sabol

Real sports goes behind the scenes as Michael Strahan makes the transition from football to pop culture.  The story of how a high school girls' volleyball team triumphs over tragedy and grief to achieve an ending fit for Hollywood.  Jon Frankel explores why athletes are so reluctant to reveal their sexual orientation until after their playing days.  Real Sports returns to the NFL Films campus one month after Steve Sabol's death to measure his enormous impact on the NFL


[img]image[/img]



General 
Complete name : [2012-10-23] Real Sports With Bryant Gumbel E187 HDTV X264 CoLLuSioN.mp4
Format : MPEG-4 
Format profile : Base Media 
Codec ID : isom 
File size : 441 MiB 
Duration : 58mn 19s 
Overall bit rate : 1 057 Kbps 
Writing application : Lavf54.6.100 

Video 
ID : 1 
Format : AVC 
Format/Info : Advanced Video Codec 
Format profile : High@L3.0 
Format settings, CABAC : Yes 
Format settings, ReFrames : 4 frames 
Codec ID : avc1 
Codec ID/Info : Advanced Video Coding 
Duration : 58mn 19s 
Bit rate : 916 Kbps 
Width : 720 pixels 
Height : 400 pixels 
Display aspect ratio : 16:9 
Frame rate mode : Variable 
Frame rate : 29.970 fps 
Minimum frame rate : 11.983 fps 
Maximum frame rate : 31.024 fps 
Color space : YUV 
Chroma subsampling : 4:2:0 
Bit depth : 8 bits 
Scan type : Progressive 
Bits/(Pixel*Frame) : 0.106 
Stream size : 382 MiB (87%) 
Writing library : x264 core 128 
Encoding settings : cabac=1 / ref=4 / deblock=1:0:0 / analyse=0x3:0x133 / me=umh / subme=7 / psy=1 / psy_rd=1.00:0.15 / mixed_ref=1 / me_range=32 / chroma_me=1 / trellis=1 / 8x8dct=1 / cqm=0 / deadzone=21,11 / fast_pskip=1 / chroma_qp_offset=-3 / threads=6 / lookahead_threads=1 / sliced_threads=0 / nr=0 / decimate=1 / interlaced=0 / bluray_compat=0 / constrained_intra=0 / bframes=4 / b_pyramid=2 / b_adapt=2 / b_bias=0 / direct=3 / weightb=1 / open_gop=0 / weightp=2 / keyint=300 / keyint_min=30 / scenecut=40 / intra_refresh=0 / rc_lookahead=50 / rc=crf / mbtree=1 / crf=22.0 / qcomp=0.60 / qpmin=3 / qpmax=69 / qpstep=4 / ip_ratio=1.40 / aq=1:1.00 
Color primaries : BT.601 NTSC 
Transfer characteristics : BT.709 
Matrix coefficients : BT.601 

Audio 
ID : 2 
Format : AAC 
Format/Info : Advanced Audio Codec 
Format profile : LC 
Codec ID : 40 
Duration : 58mn 19s 
Bit rate mode : Constant 
Bit rate : 128 Kbps 
Channel(s) : 2 channels 
Channel positions : Front: L R 
Sampling rate : 48.0 KHz 
Compression mode : Lossy 
Stream size : 53.4 MiB (12%) 
[2012-10-23] Real Sports With Bryant Gumbel E187 HDTV X264 CoLLuSioN.mp4 462.25 MB
Gathering some info...

Register and log in Isohunt and see no captcha anymore!

4000 symbols left
Hash 8ec722edcc33cd3c1e5c813d710ef8e5441b9855

Related torrents for "[2012-10-23] Real Sports With Bryant Gumbel E187 HDTV X264 CoLLuSioN"

Torrent search:

x264 hdtv 2012