imdb
rating

4.5
Barricade

Barricade (2012)

Horror, Mystery, Thriller

Full description
quality   dvdrip bd hd x264 fullhd

Barricade 2012 BDRip XVID AC3 HQ Hive-CM8

Size 1.721 GB   3 seeders     Added 2012-10-25 22:00:40

Stream torrent
Starting‥ You need BitLord! Get it from BitLord.com
To download or stream you need BitLord. Visit them at BitLord.com
[center][IMG]image[/IMG]

[b][color=MidnightBlue]Barricade.2012.BDRip.XVID.AC3.HQ.Hive-CM8 Thx Hive

Source: Bluray
Video: 720x384 @bitrate 1700 2pass
Audio: English DTS to AC3 5.1 @448
Subs: Yes, English in srt /subs
Sample: Yes, included
http://www.imdb.com/title/tt1861279/

General
Complete name: Barricade.2012.BDRip.XVID.AC3.HQ.Hive-CM8.avi
Format: AVI
Format/Info: Audio Video Interleave
File size: 1.58 GiB
Duration: 1h 21mn
Overall bit rate: 2 773 Kbps
Writing application: Nandub v1.0rc2
Writing library: Nandub build 1853/release

Video
ID: 0
Format: MPEG-4 Visual
Format profile: Advanced Simple@L5
Format settings, BVOP: 1
Format settings, QPel: Yes
Format settings, GMC: No warppoints
Format settings, Matrix: Default (H.263)
Muxing mode: Packed bitstream
Codec ID: XVID
Codec ID/Hint: XviD
Duration: 1h 21mn
Bit rate: 2 316 Kbps
Width: 720 pixels
Height: 384 pixels
Display aspect ratio: 1.85:1
Frame rate: 23.976 fps
Color space: YUV
Chroma subsampling: 4:2:0
Bit depth: 8 bits
Scan type: Progressive
Compression mode: Lossy
Bits/(Pixel*Frame): 0.349
Stream size: 1.32 GiB (84%)
Writing library: XviD 1.2.1 (UTC 2008-12-04)

Audio
ID: 1
Format: AC-3
Format/Info: Audio Coding 3
Mode extension: CM (complete main)
Format settings, Endianness: Big
Codec ID: 2000
Duration: 1h 21mn
Bit rate mode: Constant
Bit rate: 448 Kbps
Channel(s): 6 channels
Channel positions: Front: L C R, Side: L R, LFE
Sampling rate: 48.0 KHz
Bit depth: 16 bits
Compression mode: Lossy
Stream size: 261 MiB (16%)
Alignment: Split accross interleaves
Interleave, duration: 42 ms (1.00 video frame)
Interleave, preload duration: 500 ms

Plot:
A father's quiet retreat to the woods with his
two children turns into a fight for survival

Cast:
Eric McCormack ... Terrance Shade
Jody Thompson ... Leah Shade
Dalias Blake ... Deputy Dan[/color][/b] 

[IMG]image[/IMG]
[IMG]image[/IMG]
[IMG]image[/IMG]
[IMG]image[/IMG][/center]

Barricade.2012.BDRip.XVID.AC3.HQ.Hive-CM8/Barricade.2012.BDRip.XVID.AC3.HQ.Hive-CM8.avi 1.697 GB
Barricade.2012.BDRip.XVID.AC3.HQ.Hive-CM8/Barricade.2012.BDRip.XVID.AC3.HQ.Hive-CM8.nfo 3.54 KB
Barricade.2012.BDRip.XVID.AC3.HQ.Hive-CM8/sample.avi 24.431 MB
Gathering some info...

Register and log in Isohunt and see no captcha anymore!

4000 symbols left
Hash 845eea3296f82010be46854b1c92726d5b76f4f4

Related torrents for "Barricade 2012 BDRip XVID AC3 HQ Hive-CM8"

Torrent search:

2012 bd