The Birdcage - Piume Di Struzzo (1996) [XviD - Italian English] MIRCrew [TNT Village]

Size 1.565 GB   8 seeders     Added 2012-10-25 23:00:24

Stream torrent
Starting‥ You need BitLord! Get it from BitLord.com
To download or stream you need BitLord. Visit them at BitLord.com
The Birdcage - Piume Di Struzzo (1996) [XviD - Italian English] MIRCrew [TNT Village]


Piume Di Struzzo - The Birdcage (1996) [XviD - Italian English] MIRCrew [TNT Village]


[b][color=violet][IMG]image[/IMG]

*********************************************

[URL=http://www.imdb.com/title/tt0115685/][IMG]image[/IMG][/URL]

Piume Di Struzzo - The Birdcage (1996)

[IMG]image[/IMG]

[IMG]image[/IMG]


Titolo originale 	The Birdcage
Paese di produzione 	Stati Uniti d'America
Anno 	1996
Durata 	117 min

Piume di struzzo (The Birdcage) è un film del 1996 diretto da Mike Nichols, tratto dall'opera teatrale La Cage Aux Folles di Jean Poiret e remake del celebre film Il vizietto (1978) di 

Edouard Molinaro.

Genere 	commedia, satirico
Regia 	Mike Nichols
Soggetto 	Jean Poiret (opera teatrale)
Sceneggiatura 	Elaine May
Fotografia 	Emmanuel Lubezki
Montaggio 	Arthur Schmidt
Effetti speciali 	Stan Parks, Daniel Sudick
Musiche 	Stephen Sondheim + AA. VV.
Scenografia 	Bo Welch

[IMG]image[/IMG]

[IMG]image[/IMG]

 Robin Williams: Armand Goldman
 Gene Hackman: Senatore Kevin Keeley
 Nathan Lane: Albert Goldman/Starina
 Dianne Wiest: Louise Keeley
 Dan Futterman: Val Goldman
 Calista Flockhart: Barbara "Barbie" Keeley
 Hank Azaria: Agador "Spartacus"
 Christine Baranski: Katherine Archer
 James Lally: Cyril
 Luca Tommassini: Celsius

Doppiatori italiani

 Carlo Valli: Armand Goldman
 Massimo Ranieri: Albert Goldman/Starina
 Sergio Fiorentini: Senatore Kevin Keeley
 Riccardo Rossi: Val Goldman
 Barbara De Bortoli: Barbara "Barbie" Keeley

[IMG]image[/IMG]


[IMG]image[/IMG]

Armand e Albert sono una coppia omosessuale che da vent'anni gestisce un locale in Florida, "The bird cage" ("La gabbia degli uccelli"); Albert è anche la stella di punta del locale, 

conosciuta al pubblico con il nome di Starina.

Una sera irrompe nella loro casa Val, frutto dell'unica relazione eterosessuale di Armand: il ragazzo informa il padre del suo imminente matrimonio con una donna di nome Barbara. Ma la 

ragazza è figlia di un importante senatore repubblicano, uomo dunque dall'animo bigotto e conservatore; la ragazza, per ottenere l'approvazione dei genitori, racconta loro che il padre del 

suo fidanzato è uno stimato diplomatico che lavora in Grecia.................

Storyline

Armand Goldman owns a popular drag nightclub in South Miami Beach. His long-time lover Albert stars there as Starina. "Their" son Val (actually Armand's by his one heterosexual fling, 

twenty years before) comes home to announce his engagement to Barbara Keely, daughter of Kevin Keely, US Senator, and vice president of the Committee for Moral Order. The Senator and family 

descend upon South Beach to meet Val and his father and "mother..." and what ensues is comic chaos.

[IMG]image[/IMG]

[IMG]image[/IMG]




[IMG]image[/IMG]

General
Complete name : Piume Di Struzzo - The Birdcag (1996).avi
Format : AVI
Format/Info : Audio Video Interleave
File size : 1.46 GiB
Duration : 1h 54mn
Overall bit rate mode : Variable
Overall bit rate : 1 829 Kbps
Writing application : VirtualDubMod 1.5.10.2 (build 2540/release)
Writing library : VirtualDubMod build 2540/release

Video
ID : 0
Format : MPEG-4 Visual
Format profile : Advanced Simple@L5
Format settings, BVOP : 2
Format settings, QPel : No
Format settings, GMC : No warppoints
Format settings, Matrix : Default (MPEG)
Codec ID : XVID
Codec ID/Hint : XviD
Duration : 1h 54mn
Bit rate : 1 299 Kbps
Width : 640 pixels
Height : 352 pixels
Display aspect ratio : 16:9
Frame rate : 25.000 fps
Color space : YUV
Chroma subsampling : 4:2:0
Bit depth : 8 bits
Scan type : Progressive
Compression mode : Lossy
Bits/(Pixel*Frame) : 0.231
Stream size : 1.04 GiB (71%)
Writing library : XviD 1.1.2 (UTC 2006-11-01)

Audio #1
ID : 1
Format : AC-3
Format/Info : Audio Coding 3
Mode extension : CM (complete main)
Codec ID : 2000
Duration : 1h 54mn
Bit rate mode : Constant
Bit rate : 384 Kbps
Channel(s) : 6 channels
Channel positions : Front: L C R, Side: L R, LFE
Sampling rate : 48.0 KHz
Bit depth : 16 bits
Compression mode : Lossy
Stream size : 313 MiB (21%)
Alignment : Split accross interleaves
Interleave, duration : 40 ms (1.00 video frame)
Interleave, preload duration : 500 ms

Audio #2
ID : 2
Format : MPEG Audio
Format version : Version 1
Format profile : Layer 3
Mode : Joint stereo
Codec ID : 55
Codec ID/Hint : MP3
Duration : 1h 54mn
Bit rate mode : Variable
Bit rate : 128 Kbps
Channel(s) : 2 channels
Sampling rate : 48.0 KHz
Compression mode : Lossy
Stream size : 104 MiB (7%)
Alignment : Aligned on interleaves
Interleave, duration : 24 ms (0.60 video frame)
Interleave, preload duration : 501 ms
Writing library : LAME3.90.
Encoding settings : -m j -V 4 -q 2 -lowpass 17.6 --abr 128




[/color][/b]
Piume Di Struzzo - The Birdcage (1996).avi 1.565 GB
Gathering some info...

Register and log in Isohunt and see no captcha anymore!

4000 symbols left
Hash A4AF587A048B36B9C63C154CBBA5876591C9D7FD