imdb
rating

4.6
Rites of Spring

Rites of Spring (2011)

Horror, Thriller

Full description

Rites Of Spring 2011 STV DVDRip XviD-MARGiN

Size 740.714 MB   4 seeders     Added 2012-10-26 21:52:26

Stream torrent
Starting‥ You need BitLord! Get it from BitLord.com
To download or stream you need BitLord. Visit them at BitLord.com
[img]image[/img]

A ransom scheme turns into a nightmare for a group of kidnappers who become victims of a horrifying secret that must be paid every spring

Marco St. John	...	The Stranger
Sonny Marinelli	...	Paul Nolan
Katherine Randolph...	Amy
Anessa Ramsey	...	Rachel Adams
AJ Bowen	...	Ben Geringer
Shanna Forrestall...	Gillian Hayden
Hannah Bryan	...	Alyssa Miller

http://www.imdb.com/title/tt1227789/

Format : AVI
Format/Info : Audio Video Interleave
File size : 700 MiB
Duration : 1h 20mn
Overall bit rate : 1 218 Kbps

Video
ID : 0
Format : MPEG-4 Visual
Format profile : Advanced Simple@L5
Format settings, BVOP : 1
Format settings, QPel : No
Format settings, GMC : No warppoints
Format settings, Matrix : Default (H.263)
Codec ID : XVID
Codec ID/Hint : XviD
Duration : 1h 20mn
Bit rate : 1 063 Kbps
Width : 640 pixels
Height : 272 pixels
Display aspect ratio : 2.35:1
Frame rate : 23.976 fps
Color space : YUV
Chroma subsampling : 4:2:0
Bit depth : 8 bits
Scan type : Progressive
Compression mode : Lossy
Bits/(Pixel*Frame) : 0.255
Stream size : 611 MiB (87%)
Writing library : XviD 64

Audio
ID : 1
Format : MPEG Audio
Format version : Version 1
Format profile : Layer 3
Mode : Joint stereo
Mode extension : MS Stereo
Codec ID : 55
Codec ID/Hint : MP3
Duration : 1h 20mn
Bit rate mode : Variable
Bit rate : 142 Kbps
Nominal bit rate : 160 Kbps
Channel(s) : 2 channels
Sampling rate : 48.0 KHz
Compression mode : Lossy
Stream size : 81.5 MiB (12%)
Alignment : Aligned on interleaves
Interleave, duration : 24 ms (0.58 video frame)
Interleave, preload duration : 59 ms

[img]image[/img]
margin-rites.avi 733.616 MB
margin-rites.nfo 234 B
Sample/margin-rites-sample.avi 7.098 MB
Gathering some info...

Register and log in Isohunt and see no captcha anymore!

4000 symbols left
Hash ECF8943E00CD2A82F83841A55BAF519AD4DE8FC3

Related torrents for "Rites Of Spring 2011 STV DVDRip XviD-MARGiN"

Torrent search:

dvdrip 2011