imdb
rating

6.7
Love

Love (2012)

Drama, Romance

Full description

'Ajab Gazab Love'-2012 (Audio Cleaned) - SCam Rip - MPEG-PS.VOB

Size 706.562 MB   0 seeders     Added 2012-10-27 00:40:51

Stream torrent
Starting‥ You need BitLord! Get it from 1BitLord.com
To download or stream you need BitLord. Visit them at BitLord.com
[CENTER][SIZE="5"][COLOR="Magenta"] 'Ajab Gazab Love'-2012 (Audio Cleaned) - SCam Rip - MPEG-PS.VOB [/COLOR][/SIZE]
[IMG]image[/IMG]
[IMG]image[/IMG]
[IMG]image[/IMG]
[IMG]image[/IMG]
General
 Format : MPEG-PS
 File size : 674 MiB
 Duration : 1h 51mn
 Overall bit rate mode : Variable
 Overall bit rate : 845 Kbps
 Video #224
 ID : 224 (0xE0)
 Format : MPEG Video
 Format version : Version 2
 Format profile : Main@Main
 Format settings, BVOP : Yes
 Format settings, Matrix : Default
 Duration : 1h 51mn
 Bit rate mode : Variable
 Bit rate : 700 Kbps
 Maximum bit rate : 9 672 Kbps
 Width : 352 pixels
 Height : 288 pixels
 Display aspect ratio : 4:3
 Frame rate : 25.000 fps
 Standard : PAL
 Color space : YUV
 Chroma subsampling : 4:2:0
 Bit depth : 8 bits
 Scan type : Progressive
 Compression mode : Lossy
 Bits/(Pixel*Frame) : 0.276
 Stream size : 558 MiB (83%)
[IMG]image[/IMG]
 Audio #192
 ID : 192 (0xC0)
 Format : MPEG Audio
 Format version : Version 1
 Format profile : Layer 2
 Duration : 1h 51mn
 Bit rate mode : Constant
 Bit rate : 128 Kbps
 Channel(s) : 2 channels
 Sampling rate : 48.0 KHz
 Compression mode : Lossy
 Stream size : 102 MiB (15%)
[SIZE="6"][COLOR="SeaGreen"]Thumbnails[/COLOR][/SIZE]
 [IMG]image[/IMG]
[URL=http://www.facebook.com/pages/Hunter/172061499591085][img]image[/img][/url]
[/CENTER]
'Ajab Gazab Love'-2012 (Audio Cleaned) - SCam Rip - MPEG-PS.VOB 706.562 MB
Gathering some info...

Register and log in Isohunt and see no captcha anymore!

4000 symbols left
Hash 26F3E120B12423330B48850C1F379419088C7CBC

Related torrents for "'Ajab Gazab Love'-2012 (Audio Cleaned) - SCam Rip - MPEG-PS.VOB"

Torrent search:

2012