imdb
rating

5.9
Abraham Lincoln: Vampire Hunter

Abraham Lincoln: Vampire Hunter (2012)

Horror

Full description
quality   dvdrip screener fullhd bd dvd

Abrahan Lincohn Vampire Hunter. 720p. AC3 5.1. Latino

Size 4.368 GB   0 seeders     Added 2012-10-27 11:55:28

Stream torrent
Starting‥ You need BitLord! Get it from 1BitLord.com
To download or stream you need BitLord. Visit them at BitLord.com
Sipnosis:
“Abraham Lincoln: Cazador de vampiros” nos cuenta la vida oculta de Abraham Lincoln (Benjamin Walker), quien además de ser Presidente de los Estados Unidos también fue un cazador de vampiros tras enterarse de que su madre murió asesinada por una de esas criaturas, dando pie así a una visión fresca y visceral de las sangrientas tradiciones vampíricas, imaginando a Lincoln como el más grande cazador de no-muertos de la Historia.
Format : AVI
Format/Info : Audio Video Interleave
Format profile : OpenDML
File size : 4.07 GiB
Duration : 1h 45mn
Overall bit rate : 5 545 Kbps
Movie name : Abraham.Lincoln.Vampire.Hunter.2012.720p.BDRip.LATiNO.SPA.ENG.XviD.AC3
Genre : Fantástico
Recorded date : 13-10-2012
Writing application : VirtualDubMod 1.5.10.2 (build 2542/release)
Writing library : VirtualDubMod build 2542/release
Video
ID : 0
Format : MPEG-4 Visual
Format profile : Advanced Simple@L5
Format settings, BVOP : Yes
Format settings, QPel : No
Format settings, GMC : No warppoints
Format settings, Matrix : Default (MPEG)
Codec ID : XVID
Codec ID/Hint : XviD
Duration : 1h 45mn
Bit rate : 3 799 Kbps
Width : 1 280 pixels
Height : 528 pixels
Display aspect ratio : 2.40:1
Frame rate : 23.976 fps
Color space : YUV
Chroma subsampling : 4:2:0
Bit depth : 8 bits
Scan type : Progressive
Compression mode : Lossy
Bits/(Pixel*Frame) : 0.234
Stream size : 2.79 GiB (69%)
Writing library : XviD 1.2.1 (UTC 2008-12-04)
Audio #1
ID : 1
Format : AC-3
Format/Info : Audio Coding 3
Mode extension : CM (complete main)
Codec ID : 2000
Duration : 1h 45mn
Bit rate mode : Constant
Bit rate : 448 Kbps
Channel(s) : 6 channels
Channel positions : Front: L C R, Side: L R, LFE
Sampling rate : 48.0 KHz
Bit depth : 16 bits
Compression mode : Lossy
Stream size : 336 MiB (8%)
Alignment : Split accross interleaves
Interleave, duration : 42 ms (1.00 video frame)
Interleave, preload duration : 500 ms
Audio #2
ID : 2
Format : AC-3
Format/Info : Audio Coding 3
Mode extension : CM (complete main)
Codec ID : 2000
Duration : 1h 45mn
Bit rate mode : Constant
Bit rate : 640 Kbps
Channel(s) : 6 channels
Channel positions : Front: L C R, Side: L R, LFE
Sampling rate : 48.0 KHz
Bit depth : 16 bits
Compression mode : Lossy
Stream size : 481 MiB (12%)
Alignment : Split accross interleaves
Interleave, duration : 42 ms (1.00 video frame)
Interleave, preload duration : 500 ms
Audio #3
ID : 3
Format : AC-3
Format/Info : Audio Coding 3
Mode extension : CM (complete main)
Codec ID : 2000
Duration : 1h 45mn
Bit rate mode : Constant
Bit rate : 640 Kbps
Channel(s) : 6 channels
Channel positions : Front: L C R, Side: L R, LFE
Sampling rate : 48.0 KHz
Bit depth : 16 bits
Compression mode : Lossy
Stream size : 481 MiB (12%)
Alignment : Split accross interleaves
Interleave, duration : 42 ms (1.00 video frame)
Interleave, preload duration : 500 ms		
Abraham Lincoln Vampire Hunter (2012).jpg 362.588 KB
Abraham.Lincoln.Vampire.Hunter.2012.720p Latino.avi 4.367 GB
Gathering some info...

Register and log in Isohunt and see no captcha anymore!

4000 symbols left
Hash 75107EC4246E9D705C814251090FC69EF403E711

Related torrents for "Abrahan Lincohn Vampire Hunter. 720p. AC3 5.1. Latino"

Torrent search:

hd 2012