imdb
rating

7.4
K-PAX

K-PAX (2001)

Drama, Science Fiction

Full description
quality   dvdrip x264 hdtv hd h264 bd telesync

K-PAX 2001 720p HDTV H264 AC3 5.1 - MaryJane

Size 5.798 GB   0 seeders     Added 2012-10-27 14:14:23

Stream torrent
Starting‥ You need BitLord! Get it from BitLord.com
To download or stream you need BitLord. Visit them at BitLord.com





Prot is a patient at a mental hospital who claims to be from a far away Planet. His psychiatrist tries to help him, only to begin to doubt his own explanations.


Kevin Spacey ... Prot
Jeff Bridges ... Dr. Mark Powell
Mary McCormack ... Rachel Powell
Alfre Woodard ... Dr. Claudia Villars
David Patrick Kelly ... Howie
Saul Williams ... Ernie
Peter Gerety ... Sal
Celia Weston ... Doris Archer
Ajay Naidu ... Dr. Chakraborty
Tracy Vilar ... Maria
Melanee Murray ... Bess
John Toles-Bey ... Russell
Kimberly Scott ... Joyce Trexler
Conchata Ferrell ... Betty McAllister
Vincent Laresca ... Navarro
Mark Christopher Lawrence ... Simms
Brian Howe ... Steve
Mary Mara ... Abby
Tess McCarthy ... Natalie Powell - Age 6
Natasha Dorfhuber ... Gabby Powell - Age 9
Brandon de Paul ... Josh - Age 10 (as Brandon Michael Depaul)










General

Complete name : K-PAX 2001 720p HDTV H264 AC3 5.1 - MaryJane
Format : MPEG-4
Format profile : Base Media
Codec ID : isom
File size : 5.32 GiB
Duration : 2h 0mn
Overall bit rate : 6 339 Kbps
Writing application : Lavf53.18.0

Video

ID : 1
Format : AVC
Format/Info : Advanced Video Codec
Format profile : Main@L3.1
Format settings, CABAC : Yes
Format settings, ReFrames : 4 frames
Codec ID : avc1
Codec ID/Info : Advanced Video Coding
Duration : 2h 0mn
Bit rate : 6 000 Kbps
Width : 1 280 pixels
Height : 720 pixels
Display aspect ratio : 16:9
Frame rate mode : Constant
Frame rate : 23.976 fps
Color space : YUV
Chroma subsampling : 4:2:0
Bit depth : 8 bits
Scan type : Progressive
Bits/(Pixel*Frame) : 0.272
Stream size : 5.05 GiB (95%)
Writing library : x264 core 119
Language : English

Audio

ID : 2
Format : AC-3
Format/Info : Audio Coding 3
Mode extension : CM (complete main)
Format settings, Endianness : Big
Codec ID : ac-3
Duration : 2h 0mn
Bit rate mode : Constant
Bit rate : 320 Kbps
Channel(s) : 6 channels
Channel positions : Front: L C R, Side: L R, LFE
Sampling rate : 48.0 KHz
Bit depth : 16 bits
Compression mode : Lossy
Delay relative to video : -200ms
Stream size : 275 MiB (5%)
Language : English


K-PAX 2001 720p HDTV H264 AC3 5.1 - MaryJane.mp4 5.714 GB
Sample.mp4 83.789 MB
Gathering some info...

Register and log in Isohunt and see no captcha anymore!

4000 symbols left
Hash 613FA2D16D3518CA48CBB588550B3C10A168869F

Related torrents for "K-PAX 2001 720p HDTV H264 AC3 5.1 - MaryJane"

Torrent search:

h264 2001 hdtv hd