Three

Three (1998)

Action, Crime, Drama

Full description

3 Three (2012) Tamil - DVDRip - XviD - 1CDRip - ESubs 450MB MG

Size 464.847 MB   0 seeders     Added 2012-10-27 16:52:43

Stream torrent
Starting‥ You need BitLord! Get it from BitLord.com
To download or stream you need BitLord. Visit them at BitLord.com
...Download...Seed...Enjoy
 
image

Complete name: 3 (2012) - DVDRip - XviD - 1CDRip - [MG].mkv
Format : Matroska
Format version : Version 2
File size: 443 MiB
Duration : 2h 27mn
Overall bit rate : 419 Kbps
Writing application: Lavf52.78.3
Writing library: Lavf52.78.3

Video
ID : 1
Format : AVC
Format/Info: Advanced Video Codec
Format profile : High@L2.1
Format settings, CABAC : Yes
Format settings, ReFrames: 3 frames
Codec ID : V_MPEG4/ISO/AVC
Duration : 2h 27mn
Bit rate : 350 Kbps
Width: 608 pixels
Height : 256 pixels
Display aspect ratio : 2.40:1
Frame rate mode: Constant
Frame rate : 23.976 fps
Color space: YUV
Chroma subsampling : 4:2:0
Bit depth: 8 bits
Scan type: Progressive
Bits/(Pixel*Frame) : 0.094
Stream size: 367 MiB (83%)
Writing library: x264 core 112
Encoding settings: cabac=1 / ref=3 / deblock=1:0:0 / analyse=0x3:0x113 / me=hex / subme=7 / psy=1 / psy_rd=1.00:0.00 / mixed_ref=1 / me_range=16 / chroma_me=1 / trellis=1 / 8x8dct=1 / cqm=0 / deadzone=21,11 / fast_pskip=1 / chroma_qp_offset=-2 / threads=12 / sliced_threads=0 / nr=0 / decimate=1 / interlaced=0 / constrained_intra=0 / bframes=3 / b_pyramid=1 / b_adapt=1 / b_bias=0 / direct=1 / weightb=1 / open_gop=0 / weightp=2 / keyint=250 / keyint_min=23 / scenecut=40 / intra_refresh=0 / rc_lookahead=40 / rc=abr / mbtree=1 / bitrate=350 / ratetol=1.0 / qcomp=0.60 / qpmin=10 / qpmax=51 / qpstep=4 / ip_ratio=1.40 / aq=1:1.00
Default: Yes
Forced : No

Audio
ID : 2
Format : AC-3
Format/Info: Audio Coding 3
Mode extension : CM (complete main)
Format settings, Endianness: Big
Codec ID : A_AC3
Duration : 2h 27mn
Bit rate mode: Constant
Bit rate : 64.0 Kbps
Channel(s) : 2 channels
Channel positions: Front: L R
Sampling rate: 32.0 KHz
Bit depth: 16 bits
Compression mode : Lossy
Delay relative to video: -42ms
Stream size: 67.7 MiB (15%)
Default: Yes
Forced : No
 
image		
[www.moviegalaxy.in] 3 (2012) - DVDRip - XviD - 1CDRip - [MG].mkv 464.75 MB
[www.moviegalaxy.in] 3 (2012) - DVDRip - XviD - 1CDRip - [MG].srt 96.22 KB
Gathering some info...

Register and log in Isohunt and see no captcha anymore!

4000 symbols left
Hash D7F62AD627670ED538E11A6ABC15F517067D25D0

Related torrents for "3 Three (2012) Tamil - DVDRip - XviD - 1CDRip - ESubs 450MB MG"

Torrent search:

dvdrip 2012