imdb
rating

7.6
The Party

The Party (1968)

Comedy

Full description
quality   dvdrip dvdr

Pitbull - Don't Stop The Party ft. TJR 1090p

Size 161.764 MB   0 seeders     Added 2012-10-27 16:53:26

Stream torrent
Starting‥ You need BitLord! Get it from 1BitLord.com
To download or stream you need BitLord. Visit them at BitLord.com
General
Format                                   : MPEG-4
Format profile                           : Base Media / Version 2
Codec ID                                 : mp42
File size                                : 154 MiB
Duration                                 : 3mn 33s
Overall bit rate mode                    : Variable
Overall bit rate                         : 6 069 Kbps
Encoded date                             : UTC 2012-10-25 00:48:04
Tagged date                              : UTC 2012-10-25 00:48:04
gsst                                     : 0
gstd                                     : 213390
gssd                                     : BC5508007HH1351323613692927
gshh                                     :

Video
ID                                       : 1
Format                                   : AVC
Format/Info                              : Advanced Video Codec
Format profile                           : High@L4.0
Format settings, CABAC                   : Yes
Format settings, ReFrames                : 1 frame
Codec ID                                 : avc1
Codec ID/Info                            : Advanced Video Coding
Duration                                 : 3mn 33s
Bit rate                                 : 5 874 Kbps
Maximum bit rate                         : 12.5 Mbps
Width                                    : 1 920 pixels
Height                                   : 1 080 pixels
Display aspect ratio                     : 16:9
Frame rate mode                          : Constant
Frame rate                               : 24.000 fps
Color space                              : YUV
Chroma subsampling                       : 4:2:0
Bit depth                                : 8 bits
Scan type                                : Progressive
Bits/(Pixel*Frame)                       : 0.118
Stream size                              : 149 MiB (97%)
Tagged date                              : UTC 2012-10-25 00:48:05

Audio
ID                                       : 2
Format                                   : AAC
Format/Info                              : Advanced Audio Codec
Format profile                           : LC
Codec ID                                 : 40
Duration                                 : 3mn 33s
Bit rate mode                            : Variable
Bit rate                                 : 192 Kbps
Maximum bit rate                         : 202 Kbps
Channel(s)                               : 2 channels
Channel positions                        : Front: L R
Sampling rate                            : 44.1 KHz
Compression mode                         : Lossy
Stream size                              : 4.88 MiB (3%)
Title                                    : IsoMedia File Produced by Google, 5-11-2011
Encoded date                             : UTC 2012-10-25 00:48:05
Tagged date                              : UTC 2012-10-25 00:48:05
		
Pitbull - Don't Stop The Party ft. TJR.mp4 161.764 MB
Gathering some info...

Register and log in Isohunt and see no captcha anymore!

4000 symbols left
Hash 639AD8ACEE2F32FC85A933EDE3C891EE9112BDED

Related torrents for "Pitbull - Don't Stop The Party ft. TJR 1090p"