Ram Jaane (1995) - Untouched - DVD9 - NTSC - DEI -[BollYDesi.com]

Size 8.14 GB   0 seeders     Added 2012-10-27 17:20:40

Stream torrent
Starting‥ You need BitLord! Get it from BitLord.com
To download or stream you need BitLord. Visit them at BitLord.com
[center][size=500][color=purple]**www.bollydesi.com**[/color][color=purple][/color][/size][size=200][/size][/center]
[center]
[IMG]image[/IMG]
[SIZE="4"][B][COLOR="Blue"] Ram Jaane (1995) - Untouched - DVD9 - NTSC - DEI - Ibraram [ExDR] 
[/COLOR][/B][/SIZE]
[IMG]image[/IMG]
[IMG]image[/IMG]
[IMG]image[/IMG]
[IMG]image[/IMG]
[Code]
Movie : Ghulam (1998)
Imdb : http://www.imdb.com/title/tt0114231/
Wikipedia : http://en.wikipedia.org/wiki/Ram_Jaane
Distributor : DEI
Language : Hindi
Source : DVD9 NTSC @ ExDR 
Ripper : Ibraram @ ExDR 
Size : 7.58 GB
Container : Vobs Untouched
Release Date : 29 November 1995 (India)
Genre : Crime | Drama | Romance 
Director : Rajiv Mehra
Writers : Vinay Shukla (dialogue), Vinay Shukla (screenplay)
Stars : Shah Rukh Khan, Juhi Chawla and Vivek Mushran 
Music : Anu Malik
User Rating : 5.0/10 from 866 users 
[B][COLOR="blue"][SIZE="5"][B]Ripper Note:[/B][/SIZE][/COLOR][/B]
[B][COLOR="blue"][B][SIZE="5"]Njoy ExDR Release.
Always Seed After Complete Enjoy.[/SIZE][/B][/COLOR][/B]
[/Code]
[COLOR="blue"][SIZE="5"][B]Storyline[/B][/SIZE][/COLOR]
[Code]
[COLOR="RoyalBlue"][SIZE="4"][B]
Ram Jaane is arrested by a security guard after 
stealing cargo from a train with his best friend. 
He is shortly released and becomes one of the 
biggest hustlers in the city. After a deadly shootout, 
he is arrested by a corrupt police department and 
sent to jail again. After a few years of serving 
jail time, he goes back to the streets and to his 
friend's place. There he decides to help him raise 
the local kids in the area so they won't be corrupted 
by the streets. He quickly falls in love with a childhood 
girlfriend Bela (Juhi Chawla), but also goes back 
to his old ways.
[/B][/SIZE][/COLOR]
[/Code]
[COLOR="blue"][SIZE="5"][B]Technical info:[/B][/SIZE][/COLOR]
[Code]
Format : MPEG-PS
File size : 1 024 MiB
Duration : 21mn 10s
Overall bit rate mode : Variable
Overall bit rate : 6 760 Kbps
Video
ID : 224 (0xE0)
Format : MPEG Video
Format version : Version 2
Format profile : Main@Main
Format settings, BVOP : Yes
Format settings, Matrix : Default
Format settings, GOP : M=3, N=13
Duration : 21mn 10s
Bit rate mode : Variable
Bit rate : 6 401 Kbps
Maximum bit rate : 9 000 Kbps
Width : 720 pixels
Height : 480 pixels
Display aspect ratio : 4:3
Frame rate : 23.976 fps
Standard : NTSC
Color space : YUV
Chroma subsampling : 4:2:0
Bit depth : 8 bits
Scan type : Progressive
Scan order : 2:3 Pulldown
Compression mode : Lossy
Bits/(Pixel*Frame) : 0.773
Stream size : 969 MiB (95%)
Color primaries : BT.601 PAL
Transfer characteristics : BT.470 System B, BT.470 System G
Matrix coefficients : BT.601
Audio
ID : 189 (0xBD)-128 (0x80)
Format : AC-3
Format/Info : Audio Coding 3
Mode extension : CM (complete main)
Format settings, Endianness : Big
Muxing mode : DVD-Video
Duration : 21mn 10s
Bit rate mode : Constant
Bit rate : 224 Kbps
Channel(s) : 2 channels
Channel positions : Front: L R
Sampling rate : 48.0 KHz
Bit depth : 16 bits
Compression mode : Lossy
Delay relative to video : -348ms
Stream size : 33.9 MiB (3%)
Text
ID : 189 (0xBD)-32 (0x20)
Format : RLE
Format/Info : Run-length encoding
Muxing mode : DVD-Video
[/Code]
[SIZE="6"][COLOR="DarkRed"][B]SCREENSHOTS:[/B][/COLOR][/SIZE]
[IMG]image[/IMG]
[IMG]image[/IMG]
[IMG]image[/IMG]
[IMG]image[/IMG]
[IMG]image[/IMG]
[IMG]image[/IMG]
[IMG]image[/IMG]
[IMG]image[/IMG]
[IMG]image[/IMG]
[IMG]image[/IMG]
[IMG]image[/IMG]
[IMG]image[/IMG]
[IMG]image[/IMG]
[IMG]image[/IMG]
[IMG]image[/IMG]
[IMG]image[/IMG]
[IMG]image[/IMG]
[IMG]image[/IMG]
[/center]
VIDEO_TS/VIDEO_TS.BUP 6.144 KB
VIDEO_TS/VIDEO_TS.IFO 6.144 KB
VIDEO_TS/VTS_01_0.BUP 100.352 KB
Gathering some info...

Register and log in Isohunt and see no captcha anymore!

4000 symbols left
Hash 864976A3F00FD2B0DE2E31D920FA2CA6B1F959B0