imdb
rating

7.6
The Party

The Party (1968)

Comedy

Full description
quality   dvdrip dvdr

Pitbull - Don't Stop The Party ft. TJR 480p

Size 32.711 MB   0 seeders     Added 2012-10-27 17:53:12

Stream torrent
Starting‥ You need BitLord! Get it from 1BitLord.com
To download or stream you need BitLord. Visit them at BitLord.com
General
Format                                   : Flash Video
File size                                : 31.2 MiB
Duration                                 : 3mn 33s
Overall bit rate                         : 1 226 Kbps
httphostheader                           :

Video
Format                                   : AVC
Format/Info                              : Advanced Video Codec
Format profile                           : Main@L3.0
Format settings, CABAC                   : Yes
Format settings, ReFrames                : 3 frames
Codec ID                                 : 7
Duration                                 : 3mn 33s
Bit rate                                 : 1 091 Kbps
Width                                    : 854 pixels
Height                                   : 480 pixels
Display aspect ratio                     : 16:9
Frame rate mode                          : Constant
Frame rate                               : 24.000 fps
Color space                              : YUV
Chroma subsampling                       : 4:2:0
Bit depth                                : 8 bits
Scan type                                : Progressive
Bits/(Pixel*Frame)                       : 0.111
Stream size                              : 27.7 MiB (89%)

Audio
Format                                   : AAC
Format/Info                              : Advanced Audio Codec
Format profile                           : LC
Codec ID                                 : 10
Duration                                 : 3mn 33s
Bit rate                                 : 129 Kbps
Channel(s)                               : 2 channels
Channel positions                        : Front: L R
Sampling rate                            : 44.1 KHz
Compression mode                         : Lossy
Stream size                              : 3.27 MiB (10%)		
Pitbull - Don't Stop The Party ft. TJR.flv 32.711 MB
Gathering some info...

Register and log in Isohunt and see no captcha anymore!

4000 symbols left
Hash B5611481455926502BB1E29A5FBD17047B8F02E0

Related torrents for "Pitbull - Don't Stop The Party ft. TJR 480p"