K-Narias-DeCanariasParaElMundo-descargar-videos org mp4

Size 81.693 MB   0 seeders     Added 2012-10-28 06:35:49

To download or stream you need BitLord. Visit them at BitLord.com
General

Format                         : MPEG-4
Format profile                 : Base Media
Codec ID                       : isom
File size                      : 77.9 MiB
Duration                       : 4mn 11s
Overall bit rate mode          : Variable
Overall bit rate               : 2 598 Kbps
Encoded date                   : UTC 2012-09-25 02:36:52
Tagged date                    : UTC 2012-09-25 02:36:52

Video
ID                             : 1
Format                         : AVC
Format/Info                    : Advanced Video Codec
Format profile                 : High@L3.0
Format settings, CABAC         : Yes
Format settings, ReFrames      : 2 frames
Codec ID                       : avc1
Codec ID/Info                  : Advanced Video Coding
Duration                       : 4mn 11s
Bit rate                       : 2 523 Kbps
Maximum bit rate               : 6 345 Kbps
Width                          : 720 pixels
Height                         : 480 pixels
Display aspect ratio           : 16:9
Original display aspect ratio  : 16:9
Frame rate mode                : Constant
Frame rate                     : 25.000 fps
Standard                       : NTSC
Color space                    : YUV
Chroma subsampling             : 4:2:0
Bit depth                      : 8 bits
Scan type                      : Progressive
Bits/(Pixel*Frame)             : 0.292
Stream size                    : 75.7 MiB (97%)


Audio
ID                             : 2
Format                         : AAC
Format/Info                    : Advanced Audio Codec
Format profile                 : LC
Codec ID                       : 40
Duration                       : 4mn 11s
Bit rate mode                  : Variable
Bit rate                       : 72.0 Kbps
Maximum bit rate               : 83.9 Kbps
Channel(s)                     : 2 channels
Channel positions              : Front: L R
Sampling rate                  : 44.1 KHz
Compression mode               : Lossy
Stream size                    : 2.12 MiB (3%)				
K-Narias-DeCanariasParaElMundo-descargar-videos.org.mp4 81.693 MB
Gathering some info...

Register and log in Isohunt and see no captcha anymore!

4000 symbols left
Hash 614390B0C8B3D90C1965A98AA13397B1FBC27880