imdb
rating

6.2
Cat's Eye

Cat's Eye (1985)

Horror, Thriller

Full description
quality   dvdrip hd dvdr x264 bd fullhd

Cat's Eye (1985) / HQ DVDrip [H.264-AC3-MP4]

Size 625.087 MB   3 seeders     Added 2012-10-28 16:53:51

Stream torrent
Starting‥ You need BitLord! Get it from 1BitLord.com
To download or stream you need BitLord. Visit them at BitLord.com
A stray cat is the linking element of three tales of suspense and horror.


Director:
Lewis Teague

Writer:
Stephen King (screenplay)

--------------------------------------------------------------------------------------
Format                                   : MPEG-4
Format profile                           : Base Media / Version 2
Codec ID                                 : mp42
File size                                : 593 MiB
Duration                                 : 1h 34mn
Overall bit rate                         : 879 Kbps
Encoded date                             : UTC 2012-10-27 20:44:38
Tagged date                              : UTC 2012-10-27 21:44:01
Writing application                      : HandBrake 0.9.8 2012071700

Video
ID                                       : 1
Format                                   : AVC
Format/Info                              : Advanced Video Codec
Format profile                           : Main@L2.2
Format settings, CABAC                   : Yes
Format settings, ReFrames                : 4 frames
Codec ID                                 : avc1
Codec ID/Info                            : Advanced Video Coding
Duration                                 : 1h 34mn
Bit rate mode                            : Variable
Bit rate                                 : 684 Kbps
Width                                    : 640 pixels
Height                                   : 320 pixels
Display aspect ratio                     : 2.35:1
Frame rate mode                          : Variable
Frame rate                               : 23.976 fps
Minimum frame rate                       : 23.974 fps
Maximum frame rate                       : 23.981 fps
Color space                              : YUV
Chroma subsampling                       : 4:2:0
Bit depth                                : 8 bits
Scan type                                : Progressive
Bits/(Pixel*Frame)                       : 0.139
Stream size                              : 461 MiB (78%)
Writing library                          : x264 core 120
Encoding settings                        : cabac=1 / ref=1 / deblock=1:0:0 / 
Encoded date                             : UTC 2012-10-27 20:44:38
Tagged date                              : UTC 2012-10-27 21:44:01
Color primaries                          : BT.601 NTSC
Transfer characteristics                 : BT.709
Matrix coefficients                      : BT.601

Audio
ID                                       : 2
Format                                   : AC-3
Format/Info                              : Audio Coding 3
Format profile                           : Dolby Digital
Mode extension                           : CM (complete main)
Format settings, Endianness              : Big
Codec ID                                 : ac-3
Duration                                 : 1h 34mn
Bit rate mode                            : Constant
Bit rate                                 : 192 Kbps
Channel(s)                               : 2 channels
Channel positions                        : Front: L R
Sampling rate                            : 48.0 KHz
Bit depth                                : 16 bits
Compression mode                         : Lossy
Delay relative to video                  : 83ms
Stream size                              : 129 MiB (22%)
Encoded date                             : UTC 2012-10-27 20:44:38
Tagged date                              : UTC 2012-10-27 21:44:01

--------------------------------------------------------------------------------------

Screens:
 
image 
image 
image 
image 
image



		
Cat's Eye (1985).mp4 621.669 MB
Cat's Eye (1985)_sample.mp4 3.419 MB
Gathering some info...

Register and log in Isohunt and see no captcha anymore!

4000 symbols left
Hash 18007D703F2584510C3D21F7C1F0CE5E62692579

Related torrents for "Cat's Eye (1985) / HQ DVDrip [H.264-AC3-MP4]"

Torrent search:

dvdrip 1985