imdb
rating

7.4
The Art of 16 Bars: Get Ya' Bars Up

The Art of 16 Bars: Get Ya' Bars Up (2005)

Documentary, Music

Full description
quality   dvdrip x264

The Art Of 16 Bars (2005) DVDRip.x264 {Worldwide7477} torrent

Size 1.099 GB   0 seeders     Added 2012-10-29 13:00:28

Stream torrent
Starting‚Ä• You need BitLord! Get it from BitLord.com
To download or stream you need BitLord. Visit them at BitLord.com
[center][i][b][IMG]image[/IMG]
[IMG]image[/IMG] [IMG]image[/IMG]
[IMG]image[/IMG]
[color=red]The Art Of 16 Bars (2005)[/color]
Format : MPEG-4
Format profile : Base Media / Version 2
Codec ID : mp42
File size : 1 022 MiB
Duration : 1h 20mn
Overall bit rate mode : Variable
Overall bit rate : 1 787 Kbps
Encoded date : UTC 2012-10-29 00:17:57
Tagged date : UTC 2012-10-29 01:01:08
Writing application : HandBrake 0.9.8 2012071700
Video
ID : 1
Format : AVC
Format/Info : Advanced Video Codec
Format profile : Main@L3.0
Format settings, CABAC : Yes
Format settings, ReFrames : 4 frames
Codec ID : avc1
Codec ID/Info : Advanced Video Coding
Duration : 1h 20mn
Bit rate mode : Variable
Bit rate : 1 622 Kbps
Width : 708 pixels
Height : 386 pixels
Display aspect ratio : 1.631
Original display aspect ratio : 1.630
Frame rate mode : Variable
Frame rate : 29.970 fps
Minimum frame rate : 2.725 fps
Maximum frame rate : 29.970 fps
Color space : YUV
Chroma subsampling : 4:2:0
Bit depth : 8 bits
Scan type : Progressive
Bits/(Pixel*Frame) : 0.198
Stream size : 928 MiB (91%)
Writing library : x264 core 120
Encoded date : UTC 2012-10-29 00:17:57
Tagged date : UTC 2012-10-29 01:01:08
Color primaries : BT.601 NTSC
Transfer characteristics : BT.709
Matrix coefficients : BT.601
[IMG]image[/IMG]
[IMG]image[/IMG]
[color=blue]Click Below For IMDB INFO[/color]
[IMG]image[/IMG]
[url="http://www.imdb.com/title/tt0454886/"][IMG]image[/IMG][/url]
Audio
ID : 2
Format : AAC
Format/Info : Advanced Audio Codec
Format profile : LC
Codec ID : 40
Duration : 1h 19mn
Bit rate mode : Variable
Bit rate : 160 Kbps
Maximum bit rate : 302 Kbps
Channel(s) : 2 channels
Channel positions : Front: L R
Sampling rate : 48.0 KHz
Compression mode : Lossy
Delay relative to video : 67ms
Stream size : 91.6 MiB (9%)
Encoded date : UTC 2012-10-29 00:17:57
Tagged date : UTC 2012-10-29 01:01:08
[IMG]image[/IMG]
[IMG]image[/IMG]
[IMG]image[/IMG]
[color=red]Don't Take It If You Can't Give Back
Click my name add your review and rate thanks enjoy!![/color]
[IMG]image[/IMG] [IMG]image[/IMG] [IMG]image[/IMG][/b][/i][/center]
The Art Of 16 Bars (2005) Movie Info.txt 5.176 KB
The Art Of 16 Bars (2005).mp4 1.072 GB
The Art Of 16 Bars (2005)_sample.mp4 27.33 MB
Gathering some info...

Register and log in Isohunt and see no captcha anymore!

4000 symbols left
Hash 0109C7649D027813D1563C07E6E2AD0C0CCC4341