Paranormal Calamity LIMITED DVDRip Xvid UnKnOwN

Size 759.645 MB   3 seeders     Added 2012-10-29 21:00:19

Stream torrent
Starting‥ You need BitLord! Get it from 1BitLord.com
To download or stream you need BitLord. Visit them at BitLord.com
[img]image[/img]
[b][quote][color=Green]

Encoded By .......:UnKnOwN 
 Runtime ..........:1:25 
 IMDb URL ........:http://www.imdb.com/title/tt1645830/ 
 Language .........:English 
 File Size ........:724mb 
 Release Date ......... 2012 
 Source ......... Your Sister 
 File Type ......... Single AVI 
 PS3 Compatible ....... Fuck your PS3 
 Genre ......... Horror/Comedy 
 
 
 Video 
 ID : 0 
 Format : MPEG-4 Visual 
 Format profile : Advanced Simple@L5 
 Format settings, BVOP : Yes 
 Format settings, QPel : No 
 Format settings, GMC : No warppoints 
 Format settings, Matrix : Custom 
 Codec ID : XVID 
 Codec ID/Hint : XviD 
 Duration : 1h 12mn 
 Bit rate : 1681kbps 
 Width : 640pixels 
 Height : 352pixels 
 Display aspect ratio : 1:85 
 Frame rate : 29.000fps 
 Color space : YUV 
 Chroma subsampling : 4:2:0 
 Bit depth : 8 bits 
 Scan type : Progressive 
 Bits/(Pixel*Frame) : 0.234 
 Stream size : 892 MiB (86%) 
 Writing library : XviD 1.2.1 (UTC 2008-12-04) 
 
 
 Audio 
 ID : 1 
 Format : AC3 
 Format/Info : MPEG 
 Mode extension : CM (complete main) 
 Codec ID : 2000 
 Duration : 1h 27mn 
 Bit rate mode : Constant 
 Bit rate : 128kbps 
 Channel(s) : 2channels 
 Channel positions : Front: L R 
 Sampling rate : 48.0 KHz 
 Bit depth : 16 bits 
 Stream size : 302 MiB 
 Alignment : Aligned on interleaves 
 Interleave, duration : 42 ms (1.00 video frame) 
 Interleave, preload duration : 512 ms 
 
 
 
 
 
 
 
 SYNOPSIS 
 A couple in serious need of marriage counseling discover that their home is 
 built upon the site of a brothel that was burned to the ground over 30 years 
 before. When dead prostitutes from the past rise looking for a little fun, 
 when a spirit pimp returns seeking a little payback, and when inept ghost 
 hunters arrive to drive them out, you have a recipe for disaster 
 and a heck of a lot of fun!. 
 
 
 
 
 
 
 
 
 
 
 
 
 RELEASE INFO 
[img]image[/img]
[/color][/quote][/b]
[img]image[/img]
[img]image[/img]
[img]image[/img]
[img][/img]

[img]image[/img]


[img]image[/img]


[img]image[/img]
www.UsaBit.com.txt 0 B
pcUnKnOwN.avi 759.634 MB
UnknOwN.nfo 10.896 KB
Gathering some info...

Register and log in Isohunt and see no captcha anymore!

4000 symbols left
Hash 765E1C10F19E5C4F172076D24B290621043FEB13

Related torrents for "Paranormal Calamity LIMITED DVDRip Xvid UnKnOwN"

Torrent search:

dvdrip