imdb
rating

5.6
The Formula

The Formula (1980)

Crime, Thriller

Full description
quality   h264 hd

Varios Artistas - La Formula Sigue (h264/mp4)

Size 144.894 MB   0 seeders     Added 2012-10-30 01:53:58

Stream torrent
Starting‥ You need BitLord! Get it from 1BitLord.com
To download or stream you need BitLord. Visit them at BitLord.com
General

Format                         : MPEG-4
Format profile                 : Base Media
Codec ID                       : isom
File size                      : 138 MiB
Duration                       : 5mn 47s
Overall bit rate mode          : Variable
Overall bit rate               : 3 332 Kbps
Encoded date                   : UTC 2012-09-28 03:39:17
Tagged date                    : UTC 2012-09-28 03:39:17

Video
ID                             : 1
Format                         : AVC
Format/Info                    : Advanced Video Codec
Format profile                 : High@L3.0
Format settings, CABAC         : Yes
Format settings, ReFrames      : 2 frames
Codec ID                       : avc1
Codec ID/Info                  : Advanced Video Coding
Duration                       : 5mn 47s
Bit rate                       : 3 261 Kbps
Maximum bit rate               : 7 822 Kbps
Width                          : 720 pixels
Height                         : 480 pixels
Display aspect ratio           : 16:9
Original display aspect ratio  : 16:9
Frame rate mode                : Constant
Frame rate                     : 29.970 fps
Standard                       : NTSC
Color space                    : YUV
Chroma subsampling             : 4:2:0
Bit depth                      : 8 bits
Scan type                      : Progressive
Bits/(Pixel*Frame)             : 0.315
Stream size                    : 135 MiB (98%)


Audio
ID                             : 2
Format                         : AAC
Format/Info                    : Advanced Audio Codec
Format profile                 : LC
Codec ID                       : 40
Duration                       : 5mn 47s
Bit rate mode                  : Variable
Bit rate                       : 66.2 Kbps
Maximum bit rate               : 108 Kbps
Channel(s)                     : 2 channels
Channel positions              : Front: L R
Sampling rate                  : 48.0 KHz
Compression mode               : Lossy
Stream size                    : 2.80 MiB (2%)				
VariosArtistas-LaFormulaSigue-descargar-videos.org.mp4 144.894 MB
Gathering some info...

Register and log in Isohunt and see no captcha anymore!

4000 symbols left
Hash 91DAF81F32E7CD2E249B60C46C3BA23F154E5F00

Related torrents for "Varios Artistas - La Formula Sigue (h264/mp4)"

Torrent search:

h264