imdb
rating

4.6
Paranormal Activity 4

Paranormal Activity 4 (2012)

Horror

Full description
quality   dvdrip dvd screener bd

Paranormal Activity 4 2012 CAM XViD - INSPiRAL

Size 1.502 GB   0 seeders     Added 2012-10-30 06:53:05

Stream torrent
Starting‥ You need BitLord! Get it from 1BitLord.com
To download or stream you need BitLord. Visit them at BitLord.com
.
..............................Site Info...........................

 -   http://www.scenetime.com  *_*    

Scenetime .Always on time . friendly online private torrent community ..

     We care to share . Join us on  http://www.scenetime.com 

    Be the first to get new release at  http://www.scenetime.com

        Seed back for speed


...................................NFO:.................................................[IMG]image[/IMG]

 
TITLE: 

Paranormal Activity 4 2012 CAM XViD - INSPiRAL

IMDB: 
 
http://www.imdb.com/title/tt2109184/


SOURCES:

VIDEO - HP THANKS
AUDIO - HP THANKS
SUBS  - None Add

STATS:

Video
ID                               : 0
Format                           : MPEG-4 Visual
Format profile                   : Advanced Simple@L5
Format settings, BVOP            : 2
Format settings, QPel            : No
Format settings, GMC             : No warppoints
Format settings, Matrix          : Default (MPEG)
Muxing mode                      : Packed bitstream
Codec ID                         : XVID
Codec ID/Hint                    : XviD
Duration                         : 1h 22mn
Bit rate                         : 2 253 Kbps
Width                            : 624 pixels
Height                           : 336 pixels
Display aspect ratio             : 1.857
Frame rate                       : 29.970 fps
Color space                      : YUV
Chroma subsampling               : 4:2:0
Bit depth                        : 8 bits
Scan type                        : Progressive
Compression mode                 : Lossy
Bits/(Pixel*Frame)               : 0.359
Stream size                      : 1.30 GiB (94%)
Writing library                  : XviD 64

Audio
ID                               : 1
Format                           : MPEG Audio
Format version                   : Version 1
Format profile                   : Layer 3
Mode                             : Joint stereo
Mode extension                   : MS Stereo
Codec ID                         : 55
Codec ID/Hint                    : MP3
Duration                         : 1h 22mn
Bit rate mode                    : Constant
Bit rate                         : 128 Kbps
Channel(s)                       : 2 channels
Sampling rate                    : 48.0 KHz
Compression mode                 : Lossy
Stream size                      : 75.6 MiB (5%)
Alignment                        : Split accross interleaves
Interleave, duration             : 33 ms (1.00 video frame)
Interleave, preload duration     : 500 ms




NOTES:

Nice video by HP ...got the normal issues of borders,wrong AR,glare and colours off,quite pinky
on this one.....also a small resize,BUT with some TLC ;-)
Audio was nice,little low and some hiss on a few channels ...but for cam audio very nice.

WORKDONE:

Cropped all the borders and then resize to fix AR and also upscaled it ...like normal this makes all faults
stand out even more,so to correct them i had to use a HQ smoother on high settings,tweaked the rgb colours lowering
the pink hue ALOT and balancing out the rest.Also slight tweak on contrast and brightness,lowered the intes to dull
the glares before finally adding some sharpness back to it.
Audio stripped,dropped in AA and gave it a little boost on the DB's and also tweaked the eq bands to lower the hiss,before
resaving as mp3 and resyncing to the encode.

Enjoy folks.


SCREENS:

[img]image[/img] 
[img]image[/img] 
[img]image[/img] 
[img]image[/img] 
[img]image[/img] 
[img]image[/img] 
[img]image[/img] 
[img]image[/img] 

GREETZ: 

Past,Present,future and thanks Meggafast

[IMG]image[/IMG]
PA4.r00 15 MB
PA4.r01 15 MB
PA4.r02 15 MB
Gathering some info...

Register and log in Isohunt and see no captcha anymore!

4000 symbols left
Hash 850435F770912732F4940472DCE402F707CC5AF9

Related torrents for "Paranormal Activity 4 2012 CAM XViD - INSPiRAL"

Torrent search:

cam 2012