DVD Demi Lovato - Stay Strong

Size 1.041 GB   6 seeders     Added 2012-10-30 07:54:01

Stream torrent
Starting‥ You need BitLord! Get it from 1BitLord.com
To download or stream you need BitLord. Visit them at BitLord.com
.
..............................Site Info...........................
 -   http://www.scenetime.com  *_*    
Scenetime .Always on time . friendly online private torrent community ..
     We care to share . Join us on  http://www.scenetime.com 
    Be the first to get new release at  http://www.scenetime.com
        Seed back for speed
...................................NFO:................................................." border="0" alt="DVD Demi Lovato - Stay Strong img preview 0"/>
TITLE: 
Here Comes The Boom 2012 TS READNFO XViD - INSPiRAL
IMDB: 
http://www.imdb.com/title/tt1648179/
SOURCES:
VIDEO - MATINE / HP THANKS
AUDIO - Jiinx / UNiQUE THANKS
SUBS  - None Add
STATS:
Video
ID                               : 0
Format                           : MPEG-4 Visual
Format profile                   : Advanced Simple@L5
Format settings, BVOP            : 2
Format settings, QPel            : No
Format settings, GMC             : No warppoints
Format settings, Matrix          : Default (MPEG)
Muxing mode                      : Packed bitstream
Codec ID                         : XVID
Codec ID/Hint                    : XviD
Duration                         : 1h 40mn
Bit rate                         : 1 827 Kbps
Width                            : 720 pixels
Height                           : 272 pixels
Display aspect ratio             : 2.647
Frame rate                       : 25.000 fps
Color space                      : YUV
Chroma subsampling               : 4:2:0
Bit depth                        : 8 bits
Scan type                        : Progressive
Compression mode                 : Lossy
Bits/(Pixel*Frame)               : 0.373
Stream size                      : 1.29 GiB (93%)
Writing library                  : XviD 64
Audio
ID                               : 1
Format                           : MPEG Audio
Format version                   : Version 1
Format profile                   : Layer 3
Mode                             : Joint stereo
Codec ID                         : 55
Codec ID/Hint                    : MP3
Duration                         : 1h 40mn
Bit rate mode                    : Constant
Bit rate                         : 128 Kbps
Channel(s)                       : 2 channels
Sampling rate                    : 48.0 KHz
Compression mode                 : Lossy
Stream size                      : 92.3 MiB (7%)
Alignment                        : Split accross interleaves
Interleave, duration             : 40 ms (1.00 video frame)
Interleave, preload duration     : 500 ms
NOTES:
Videos ...matine,pretty nice but had missing scenes,some camera movement,Ar changes throughout,colour/brightness/contrast levels seemed
to change throughout aswell.
Hp ...not as sharp,got some blares,borders,ar off,but does contain the missing scenes.
Audio ...jiinx ,found this the best line out the two and unique did a good sync job...keep up the good work both :)
WORKDONE:
Well will be honest and say i took matines encoded and re-encoded it ..BUT fixed alot of issues that it had.First the AR problem now like
stated above it changes throughout,but i also noticed from around 35mins you got borders appear down the right,across the top and a slight
angled one in the bottom left corner....so i opted to cut them out and then resized the video back up to 720 x 272...looks better now,but
still does change throughout.
From there i notice the colours/brightness/contrast levels seemed to change as if it was several videos used for it ...who knows.Anyway opted
to cut the video into 3 parts and change all the levels for the brightness,contrast,sat,intes,sharpen,smoother differently for each part.
Now seems better and comparing the two side by side you wil see ;-)
Once done it was onto the audio ...this is where i noticed uniques sync job different fit ,so needed an offset then around 1hr19 i noticed there
was a skip ...so when back to the HP video cut the video from that ...cleaned it up and resized it and added it too my encode....then i just needed
to reline the audio and hey presto,back insync.
Finally step was dropping the audio into AA ...give it a touch more lovin,and saved as mp3 and remuxed.
Enjoy folks......
SCREENS:
GREETZ: 
Past,Present and Future + Many Thanks Meggafast!!!
" border="0" alt="DVD Demi Lovato - Stay Strong img preview 0"/>		
DVD Demi Lovato - Stay Strong.img 1.041 GB
Gathering some info...

Register and log in Isohunt and see no captcha anymore!

4000 symbols left
Hash 616652DBF42055D600BF20B897C9E0269E6157FE