imdb
rating

3.7
ThanksKilling 3

ThanksKilling 3 (2012)

Full description
quality   dvdrip hd x264 web-dl

ThanksKilling 3 2012 HDRiP AC3-2 0 XviD-AXED

Size 1.486 GB   0 seeders     Added 2012-10-30 08:42:13

Stream torrent
Starting‥ You need BitLord! Get it from BitLord.com
To download or stream you need BitLord. Visit them at BitLord.com
.
..............................Site Info...........................

 -   http://www.scenetime.com  *_*    

Scenetime .Always on time . friendly online private torrent community ..

     We care to share . Join us on  http://www.scenetime.com 

    Be the first to get new release at  http://www.scenetime.com

        Seed back for speed


...................................NFO:.................................................(  ___  )|     /|(  ____ (  __   
| (   ) |(    / )| (    /| (    )
| (___) |  (_) / | (__    | |   ) |
|  ___  |  ) _ (  |  __)   | |   | |
| (   ) | / ( )  | (      | |   ) |
| )   ( |( /    )| (____/| (__/  )
|/     ||/     |(_______/(______/ 
  _    _    _    _    _    _    _    _  
 /   /   /   /   /   /   /   /  
( p )( r )( e )( s )( e )( n )( t )( s )
 _/  _/  _/  _/  _/  _/  _/  _/
 
ThanksKilling.3.2012.HDRiP.AC3-2.0.XviD-AXED

POSTER: 
[IMG]image[/IMG]

IMDB:  
http://www.imdb.com/title/tt2106675/

PLOT INFO:
Fowl-mouthed villain Turkie carves through the likes of a rapping grandma, a mindless puppet, a wig-wearing inventor, a bisexual space worm, and their equally ridiculous friends on his quest to recover the last copy of "ThanksKilling 2".

MEDIAINFO:
General
Complete name                            : ThanksKilling.3.2012.HDRiP.AC3-2.0.XviD-AXED.avi
Format                                   : AVI
Format/Info                              : Audio Video Interleave
File size                                : 1.37 GiB
Duration                                 : 1h 39mn
Overall bit rate                         : 1 975 Kbps

Video
ID                                       : 0
Format                                   : MPEG-4 Visual
Format profile                           : Advanced Simple@L5
Format settings, BVOP                    : 2
Format settings, QPel                    : No
Format settings, GMC                     : No warppoints
Format settings, Matrix                  : Default (H.263)
Muxing mode                              : Packed bitstream
Codec ID                                 : XVID
Codec ID/Hint                            : XviD
Duration                                 : 1h 39mn
Bit rate                                 : 1 775 Kbps
Width                                    : 720 pixels
Height                                   : 304 pixels
Display aspect ratio                     : 2.35:1
Frame rate                               : 23.976 fps
Color space                              : YUV
Chroma subsampling                       : 4:2:0
Bit depth                                : 8 bits
Scan type                                : Progressive
Compression mode                         : Lossy
Bits/(Pixel*Frame)                       : 0.338
Stream size                              : 1.23 GiB (90%)
Writing library                          : XviD 64

Audio
ID                                       : 1
Format                                   : AC-3
Format/Info                              : Audio Coding 3
Mode extension                           : CM (complete main)
Format settings, Endianness              : Big
Codec ID                                 : 2000
Duration                                 : 1h 39mn
Bit rate mode                            : Constant
Bit rate                                 : 192 Kbps
Channel(s)                               : 2 channels
Channel positions                        : Front: L R
Sampling rate                            : 48.0 KHz
Bit depth                                : 16 bits
Compression mode                         : Lossy
Stream size                              : 136 MiB (10%)
Alignment                                : Aligned on interleaves
Interleave, duration                     : 64 ms (1.53 video frames)
Interleave, preload duration             : 192 ms
Title                                    : thankskilling3




SOURCE: 
720p Super Secret Source!


NOTES: 
Here's one for all the b horror film lovers out there before it even hits limited theatres or VOD!

AXED! - The only name to trust for VOD/HDRiP!

SCREENS:
[IMG]image[/IMG]
[IMG]image[/IMG]
[IMG]image[/IMG]
[IMG]image[/IMG]
[IMG]image[/IMG]
{www.scenetime.com}ThanksKilling.3.2012.HDRiP.AC3-2.0.XviD-AXED/Read this before playing this Video.txt 222 B
{www.scenetime.com}ThanksKilling.3.2012.HDRiP.AC3-2.0.XviD-AXED/SAMPLE.avi 15.938 MB
{www.scenetime.com}ThanksKilling.3.2012.HDRiP.AC3-2.0.XviD-AXED/ThanksKilling.3.2012.HDRiP.AC3-2.0.XviD-AXED.avi 1.47 GB
Gathering some info...

Register and log in Isohunt and see no captcha anymore!

4000 symbols left
Hash d14abd67714474f33c89c42b7dac6fcc3d2f837f

Related torrents for "ThanksKilling 3 2012 HDRiP AC3-2 0 XviD-AXED"

Torrent search:

hd 2012