Attack of the Show 2012 10 29 x264 OzQuant

Size 307.309 MB   3 seeders     Added 2012-10-30 15:00:49

Stream torrent
Starting‥ You need BitLord! Get it from 1BitLord.com
To download or stream you need BitLord. Visit them at BitLord.com
[size=200]Episode Info[/size]
Tonight on Attack of the Show, Josh Meyer takes up the co-hosting reigns with Candace Bailey as they sit down with Brandon Routh from Partners, Matt Mira's review of Microsoft's new Surface tablet and get Halloween make-up tips from Glenn Hetrick of Face Off fame.

[size=200]File Info[/size]
Format : MPEG-4
Format profile : Base Media / Version 2
Codec ID : mp42
File size : 293 MiB
Duration : 43mn 26s
Overall bit rate mode : Variable
Overall bit rate : 943 Kbps

[size=200]Video[/size]
ID : 1
Format : AVC
Format/Info : Advanced Video Codec
Format profile : Main@L3.0
Format settings, CABAC : Yes
Format settings, ReFrames : 4 frames
Codec ID : avc1
Codec ID/Info : Advanced Video Coding
Duration : 43mn 26s
Bit rate mode : Variable
Bit rate : 875 Kbps
Width : 528 pixels
Height : 416 pixels
Display aspect ratio : 16:9
Frame rate mode : Variable
Frame rate : 25.000 fps
Minimum frame rate : 12.500 fps
Maximum frame rate : 25.000 fps
Color space : YUV
Chroma subsampling : 4:2:0
Bit depth : 8 bits
Scan type : Progressive
Bits/(Pixel*Frame) : 0.159
Stream size : 272 MiB (93%)
Writing library : x264 core 112

[size=200]Audio[/size]
ID : 2
Format : AAC
Format/Info : Advanced Audio Codec
Format profile : LC
Codec ID : 40
Duration : 43mn 26s
Bit rate mode : Variable
Bit rate : 64.0 Kbps
Maximum bit rate : 82.3 Kbps
Channel(s) : 2 channels
Channel positions : Front: L R
Sampling rate : 32.0 KHz
Compression mode : Lossy
Stream size : 19.9 MiB (7%)
Attack.of.the.Show.2012.10.29.x264.OzQuant.mp4 307.309 MB
Gathering some info...

Register and log in Isohunt and see no captcha anymore!

4000 symbols left
Hash 977B65093F127D6D01DAD8415B87CE2375D7500D

Related torrents for "Attack of the Show 2012 10 29 x264 OzQuant"

Torrent search:

x264 2012