Georgica (Sulev Keedus, 1998)

Size 1.568 GB   2 seeders     Added 2012-10-30 20:52:51

Stream torrent
Starting‥ You need BitLord! Get it from 1BitLord.com
To download or stream you need BitLord. Visit them at BitLord.com
An old man who lives alone on a deserted island which the Soviet fighter planes use for nighttime target practicing. A young mute boy is sent from the mainland to keep him company. Both are haunted by memories, the boy about his mother and the old man about his younger days as a missionary in Africa. Written by Markku Kuoppamäki

Format                                   : AVI
Format/Info                              : Audio Video Interleave
File size                                : 1.45 GiB
Duration                                 : 1h 43mn
Overall bit rate                         : 2 012 Kbps
Writing application                      : VirtualDubMod 1.4.13
Writing library                          : VirtualDub build 14328/release
 
Video
ID                                       : 0
Format                                   : MPEG-4 Visual
Format profile                           : Advanced Simple@L5
Format settings, BVOP                    : 1
Format settings, QPel                    : No
Format settings, GMC                     : No warppoints
Format settings, Matrix                  : Custom
Codec ID                                 : XVID
Codec ID/Hint                            : XviD
Duration                                 : 1h 43mn
Bit rate                                 : 1 554 Kbps
Width                                    : 608 pixels
Height                                   : 352 pixels
Display aspect ratio                     : 16:9
Frame rate                               : 25.000 fps
Color space                              : YUV
Chroma subsampling                       : 4:2:0
Bit depth                                : 8 bits
Scan type                                : Progressive
Compression mode                         : Lossy
Bits/(Pixel*Frame)                       : 0.290
Stream size                              : 1.12 GiB (77%)
Writing library                          : XviD 1.1.2 (UTC 2006-11-01)
 
Audio
ID                                       : 1
Format                                   : AC-3
Format/Info                              : Audio Coding 3
Mode extension                           : CM (complete main)
Codec ID                                 : 2000
Duration                                 : 1h 43mn
Bit rate mode                            : Constant
Bit rate                                 : 448 Kbps
Channel(s)                               : 6 channels
Channel positions                        : Front: L C R, Side: L R, LFE
Sampling rate                            : 48.0 KHz
Bit depth                                : 16 bits
Compression mode                         : Lossy
Stream size                              : 331 MiB (22%)
Alignment                                : Split accross interleaves
Interleave, duration                     : 40 ms (1.00 video frame)
Interleave, preload duration             : 500 ms

---------------------

SUBS: English, Russian, Dutch, Finnish, Estonian e Português

---------------------

Thanks to Lucky Luciano @ KG
Georgica (Sulev Keedus, 1998).avi 1.559 GB
Georgica (Sulev Keedus, 1998).sub 7.807 MB
Georgica (Sulev Keedus, 1998).rar 1.48 MB
Gathering some info...

Register and log in Isohunt and see no captcha anymore!

4000 symbols left
Hash F62CB737610120E01A19BA259F0BD93FDA2C67E3