Attack of the Show 2012 10 30 x264 OzQuant

Size 300.616 MB   2 seeders     Added 2012-10-31 16:20:53

Stream torrent
Starting‥ You need BitLord! Get it from BitLord.com
To download or stream you need BitLord. Visit them at BitLord.com
[size=200]Episode Info[/size]
Tonight on Attack of the Show, Josh Meyers and Candace Bailey sit down with Eliza Coupe from Happy Endings, Norman Reedus and Chandler Riggs takes us through The Walking Dead maze at Halloween Horror Nights and more!
[size=200]File Info[/size]
Format : MPEG-4
Format profile : Base Media / Version 2
Codec ID : mp42
File size : 287 MiB
Duration : 41mn 58s
Overall bit rate mode : Variable
Overall bit rate : 955 Kbps
[size=200]Video[/size]
ID : 1
Format : AVC
Format/Info : Advanced Video Codec
Format profile : Main@L3.0
Format settings, CABAC : Yes
Format settings, ReFrames : 4 frames
Codec ID : avc1
Codec ID/Info : Advanced Video Coding
Duration : 41mn 57s
Bit rate mode : Variable
Bit rate : 887 Kbps
Width : 528 pixels
Height : 416 pixels
Display aspect ratio : 16:9
Frame rate mode : Variable
Frame rate : 25.000 fps
Minimum frame rate : 12.500 fps
Maximum frame rate : 25.000 fps
Color space : YUV
Chroma subsampling : 4:2:0
Bit depth : 8 bits
Scan type : Progressive
Bits/(Pixel*Frame) : 0.162
Stream size : 266 MiB (93%)
Writing library : x264 core 112
[size=200]Audio[/size]
ID : 2
Format : AAC
Format/Info : Advanced Audio Codec
Format profile : LC
Codec ID : 40
Duration : 41mn 58s
Bit rate mode : Variable
Bit rate : 64.0 Kbps
Maximum bit rate : 82.3 Kbps
Channel(s) : 2 channels
Channel positions : Front: L R
Sampling rate : 32.0 KHz
Compression mode : Lossy
Stream size : 19.2 MiB (7%)
Attack.of.the.Show.2012.10.30.x264.OzQuant.mp4 300.616 MB
Gathering some info...

Register and log in Isohunt and see no captcha anymore!

4000 symbols left
Hash F4C2516C379ECA46A57E110EA94D19C60A132B9D

Related torrents for "Attack of the Show 2012 10 30 x264 OzQuant"

Torrent search:

x264 2012